<?xml version="1.0" standalone="no"?>
<!DOCTYPE svg PUBLIC "-//W3C//DTD SVG 1.1//EN" "http://www.w3.org/Graphics/SVG/1.1/DTD/svg11.dtd">
<svg xmlns="http://www.w3.org/2000/svg">
<defs >
<font id="Montserrat" horiz-adv-x="611" ><font-face
    font-family="Montserrat SemiBold"
    units-per-em="1000"
    panose-1="0 0 7 0 0 0 0 0 0 0"
    ascent="968"
    descent="-251"
    alphabetic="0" />
<glyph unicode=" " glyph-name="space" horiz-adv-x="234" />
<glyph unicode="!" glyph-name="exclam" horiz-adv-x="240" d="M56 695H203V518L176 236H83L56 518V695ZM162 150T183 128T205 71Q205 36 184 14T128 -9Q95 -9 73 14T51 71Q51 106 73 128T128 150Q162 150 183 128Z" />
<glyph unicode="&quot;" glyph-name="quotedbl" horiz-adv-x="414" d="M60 700H176V434H60V700ZM238 700H354V434H238V700Z" />
<glyph unicode="#" glyph-name="numbersign" horiz-adv-x="732" d="M701 422H562L544 271H679L667 160H530L510 0H399L419 160H267L247 0H135L155 160H19L31 271H169L187 422H52L64 533H201L222 700H333L312 533H464L485 700H597L576 533H712L701 422ZM432 271L451
422H299L280 271H432Z" />
<glyph unicode="$" glyph-name="dollar" horiz-adv-x="637" d="M231 481T265 462T372 421Q444 400 490 379T570 316T603 205Q603 117 544 62T386 -5V-150H271V-5Q200 4 135 32T20 103L83 232Q136 184 205 155T331 126Q380 126 407 144T435 196Q435 223 417 240T370
269T291 294Q219 314 174 334T95 395T62 504Q62 586 118 640T271 709V845H386V710Q446 703 501 684T599 636L538 505Q484 538 424 557T320 577Q279 577 255 562T231 518Q231 481 265 462Z" />
<glyph unicode="%" glyph-name="percent" horiz-adv-x="983" d="M309 703T360 647T411 493Q411 395 360 338T220 281Q131 281 80 338T28 493Q28 591 79 647T220 703Q309 703 360 647ZM176 617T152 584T127 493Q127 434 151 401T220 367Q264 367 288 400T313 493Q313
551 288 584T220 617Q176 617 152 584ZM686 700H796L292 0H180L686 700ZM853 419T904 363T955 209Q955 111 904 54T764 -3Q675 -3 624 54T572 209Q572 307 623 363T764 419Q853 419 904 363ZM720 333T696 300T671 209Q671 150 695 117T764 83Q808 83 832 116T857
209Q857 267 832 300T764 333Q720 333 696 300Z" />
<glyph unicode="&amp;" glyph-name="ampersand" horiz-adv-x="678" d="M593 -27L491 73Q399 -7 288 -7Q222 -7 169 19T86 91T55 195Q55 261 92 304T198 385Q166 429 152 466T137 542Q137 616 190 661T331 707Q387 707 431 688T499 633T524 553Q524 488 481 445T358
362Q409 304 479 236Q512 289 532 353L630 280Q605 215 564 154Q593 125 671 51L593 -27ZM258 496T299 436Q349 463 376 489T403 552Q403 581 384 598T333 616Q299 616 279 596T258 542Q258 496 299 436ZM354 105T410 152Q319 243 259 309Q222 286 202 262T182
206Q182 161 214 133T294 105Q354 105 410 152Z" />
<glyph unicode="&apos;" glyph-name="quotesingle" horiz-adv-x="236" d="M60 700H176V434H60V700Z" />
<glyph unicode="(" glyph-name="parenleft" horiz-adv-x="332" d="M270 653T238 541T206 309Q206 189 238 77T326 -124H188Q127 -37 95 74T62 309Q62 432 94 543T188 742H326Q270 653 238 541Z" />
<glyph unicode=")" glyph-name="parenright" horiz-adv-x="332" d="M144 742Q205 655 237 544T270 309Q270 186 238 75T144 -124H6Q62 -35 94 77T126 309Q126 429 94 541T6 742H144Z" />
<glyph unicode="*" glyph-name="asterisk" horiz-adv-x="368" d="M145 720H223L222 622L306 672L345 602L258 555L345 507L306 437L221 487L223 390H145L147 488L62 438L23 507L109 555L23 602L62 673L147 622L145 720Z" />
<glyph unicode="+" glyph-name="plus" horiz-adv-x="506" d="M473 377V275H302V106H204V275H33V377H204V547H302V377H473Z" />
<glyph unicode="," glyph-name="comma" horiz-adv-x="232" d="M149 149T171 128T193 71Q193 55 188 42T173 9L102 -118H27L74 8Q41 29 41 71Q41 105 63 127T118 149Q149 149 171 128Z" />
<glyph unicode="-" glyph-name="hyphen" horiz-adv-x="372" d="M57 357H315V255H57V357Z" />
<glyph unicode="." glyph-name="period" horiz-adv-x="235" d="M151 150T172 128T194 71Q194 36 173 14T117 -9Q84 -9 62 14T40 71Q40 106 62 128T117 150Q151 150 172 128Z" />
<glyph unicode="/" glyph-name="slash" horiz-adv-x="346" d="M290 812H420L98 -112H-31L290 812Z" />
<glyph unicode="0" glyph-name="zero" horiz-adv-x="705" d="M501 706T580 614T659 350Q659 179 580 87T354 -6Q206 -6 127 86T47 350Q47 522 126 614T354 706Q501 706 580 614ZM279 585T244 529T209 350Q209 228 244 172T354 115Q427 115 462 171T497 350Q497
473 462 529T354 585Q279 585 244 529Z" />
<glyph unicode="1" glyph-name="one" horiz-adv-x="393" d="M-7 700H292V0H134V566H-7V700Z" />
<glyph unicode="2" glyph-name="two" horiz-adv-x="597" d="M564 132V0H38V109L297 376Q332 411 352 444T373 503Q373 536 348 554T277 573Q232 573 181 550T82 486L20 604Q158 707 300 707Q370 707 424 685T508 622T538 527Q538 474 503 417T404 294L243 132H564Z" />
<glyph unicode="3" glyph-name="three" horiz-adv-x="598" d="M450 399T504 349T559 219Q559 153 525 102T427 22T278 -7Q205 -7 133 15T10 75L71 192Q114 156 164 137T266 118Q332 118 368 144T404 218Q404 265 368 289T265 314H152V404L327 573H46L45 701H524V606L322
416L358 411Q450 399 504 349Z" />
<glyph unicode="4" glyph-name="four" horiz-adv-x="603" d="M571 285V158H475V0H330V158H4V269L218 700H368L167 285H330V440H475V285H571Z" />
<glyph unicode="5" glyph-name="five" horiz-adv-x="623" d="M398 445T459 418T553 343T586 233Q586 161 552 107T454 23T306 -7Q238 -7 165 16T35 78L96 196Q140 160 190 140T289 120Q348 120 382 147T416 222Q416 268 383 292T283 317Q246 317 186 316T94 311V700H554V568H240V445H318Q398
445 459 418Z" />
<glyph unicode="6" glyph-name="six" horiz-adv-x="632" d="M476 560T438 571T359 583Q271 583 227 528T185 374Q212 415 256 436T359 458Q462 458 522 397T583 232Q583 159 552 105T463 22T330 -7Q239 -7 173 34T72 153T37 338Q37 449 75 532T184 661T349 707Q405
707 464 692T567 651L507 539Q476 560 438 571ZM270 341T237 310T205 230Q204 185 234 154T323 122Q377 122 408 151T440 233Q440 283 410 312T327 341Q270 341 237 310Z" />
<glyph unicode="7" glyph-name="seven" horiz-adv-x="582" d="M11 700H560V587L284 0H117L383 568H152L151 470H11V700Z" />
<glyph unicode="8" glyph-name="eight" horiz-adv-x="632" d="M420 707T485 657T550 520Q550 474 526 436T459 374Q518 351 552 304T586 197Q586 135 552 89T456 18T309 -7Q226 -7 164 17T67 87T33 194Q33 254 69 302T167 374Q121 399 95 439T68 526Q68 609 133
658T308 707Q420 707 485 657ZM257 598T229 576T200 512Q200 472 228 450T309 427Q361 427 389 449T418 512Q418 553 390 575T309 598Q257 598 229 576ZM248 308T215 283T181 211Q181 164 214 138T309 112Q370 112 404 137T438 210Q438 257 404 282T309 308Q248
308 215 283Z" />
<glyph unicode="9" glyph-name="nine" horiz-adv-x="630" d="M140 140T178 129T257 117Q344 117 388 172T430 327Q375 242 256 242Q154 242 94 304T34 469Q34 541 65 595T153 678T286 707Q376 707 442 666T543 547T578 363Q578 252 540 168T431 39T266 -7Q211
-7 152 8T50 50L109 162Q140 140 178 129ZM239 579T208 550T177 468Q177 418 207 389T289 360Q346 360 378 391T411 471Q411 516 381 547T293 579Q239 579 208 550Z" />
<glyph unicode=":" glyph-name="colon" horiz-adv-x="235" d="M151 447T172 425T194 368Q194 333 173 311T117 288Q84 288 62 311T40 368Q40 403 62 425T117 447Q151 447 172 425ZM151 150T172 128T194 71Q194 36 173 14T117 -9Q84 -9 62 14T40 71Q40 106 62 128T117
150Q151 150 172 128Z" />
<glyph unicode=";" glyph-name="semicolon" horiz-adv-x="233" d="M151 447T172 425T194 368Q194 333 173 311T117 288Q84 288 62 311T40 368Q40 403 62 425T117 447Q151 447 172 425ZM149 149T171 128T193 71Q193 55 188 42T173 9L102 -118H27L74 8Q41 29 41
71Q41 105 63 127T118 149Q149 149 171 128Z" />
<glyph unicode="&lt;" glyph-name="less" horiz-adv-x="506" d="M473 575V461L134 325L473 188V74L33 260V389L473 575Z" />
<glyph unicode="=" glyph-name="equal" horiz-adv-x="506" d="M33 484H473V382H33V484ZM33 270H473V168H33V270Z" />
<glyph unicode="&gt;" glyph-name="greater" horiz-adv-x="506" d="M33 81V195L372 331L33 468V582L473 396V267L33 81Z" />
<glyph unicode="?" glyph-name="question" horiz-adv-x="462" d="M23 585T82 643T243 701Q341 701 397 656T454 528Q454 490 441 461T410 412T360 365Q319 329 300 302T280 236H165Q165 276 176 305T204 354T248 400Q280 429 295 450T310 504Q310 539 289 556T230
574Q144 574 141 480L22 481Q23 585 82 643ZM254 150T275 128T297 71Q297 36 276 14T220 -9Q187 -9 165 14T143 71Q143 106 165 128T220 150Q254 150 275 128Z" />
<glyph unicode="@" glyph-name="at" horiz-adv-x="936" d="M688 105T729 105Q751 105 771 126T803 186T815 271Q815 367 774 445T655 568T474 613Q378 613 297 567T169 441T121 267Q121 174 166 99T288 -18T461 -61Q508 -61 559 -46T651 -1L696 -78Q653 -110 587
-130T461 -150Q339 -150 240 -96T84 54T27 267Q27 387 86 486T248 642T474 700Q597 700 696 645T851 493T908 274Q908 200 884 144T816 58T717 27Q670 27 640 46T600 105L598 120Q570 79 529 59T440 38Q382 38 331 67T249 150T218 270Q218 335 244 389T318 474T428
506Q465 506 496 493T546 464T571 439V495H688V155Q688 105 729 105ZM405 397T376 362T346 275Q346 221 376 183T453 145Q503 145 533 182T563 274Q563 326 533 361T451 397Q405 397 376 362Z" />
<glyph unicode="A" glyph-name="A" horiz-adv-x="759" d="M594 0L539 136H215L160 0H-3L301 700H464L763 0H594ZM267 263H488L378 535L267 263Z" />
<glyph unicode="B" glyph-name="B" horiz-adv-x="712" d="M515 700T582 653T649 525Q649 469 617 428T528 371Q596 358 635 311T674 194Q674 104 603 52T410 0H77V700H399Q515 700 582 653ZM436 418T461 438T487 496Q487 532 462 552T391 571H235V418H391Q436
418 461 438ZM447 129T479 151T511 214Q511 252 479 274T391 295H235V129H391Q447 129 479 151Z" />
<glyph unicode="C" glyph-name="C" horiz-adv-x="694" d="M548 524T500 548T402 573Q343 573 294 544T217 465T189 354Q189 293 217 243T294 163T402 133Q449 133 497 155T584 216L677 115Q621 57 546 23T394 -11Q291 -11 207 36T75 167T27 352Q27 453 76 535T210
664T400 711Q476 711 550 680T676 594L584 481Q548 524 500 548Z" />
<glyph unicode="D" glyph-name="D" horiz-adv-x="769" d="M481 700T565 656T695 532T742 350Q742 248 695 169T562 45T368 0H77V700H374Q481 700 565 656ZM436 133T482 160T555 237T581 349Q581 412 554 462T479 539T371 567H235V133H378Q436 133 482 160Z" />
<glyph unicode="E" glyph-name="E" horiz-adv-x="668" d="M77 700H610V569H235V417H572V286H235V131H621V0H77V700Z" />
<glyph unicode="F" glyph-name="F" horiz-adv-x="595" d="M77 700H580L579 569H235V397H551V265H235V0H77V700Z" />
<glyph unicode="G" glyph-name="G" horiz-adv-x="745" d="M547 353H684V81Q628 40 550 15T400 -11Q295 -11 210 36T76 166T27 351Q27 452 77 534T214 664T409 711Q487 711 561 683T690 607L601 494Q562 531 511 552T409 573Q348 573 298 544T218 464T189 351Q189
289 218 238T298 157T410 127Q441 127 477 137T547 166V353Z" />
<glyph unicode="H" glyph-name="H" horiz-adv-x="787" d="M77 700H235V408H552V700H710V0H552V276H235V0H77V700Z" />
<glyph unicode="I" glyph-name="I" horiz-adv-x="313" d="M77 700H235V0H77V700Z" />
<glyph unicode="J" glyph-name="J" horiz-adv-x="524" d="M460 115T398 54T225 -7Q89 -7 -4 102L69 214Q105 176 144 156T217 136Q257 136 279 160T301 228V566H60V700H460V224Q460 115 398 54Z" />
<glyph unicode="K" glyph-name="K" horiz-adv-x="737" d="M726 0H537L335 287L235 176V0H77V700H235V374L525 700H709L445 409L726 0Z" />
<glyph unicode="L" glyph-name="L" horiz-adv-x="552" d="M77 700H235V138H535V0H77V700Z" />
<glyph unicode="M" glyph-name="M" horiz-adv-x="940" d="M77 700H253L471 270L687 700H862V0H720V473L521 71H419L219 473V0H77V700Z" />
<glyph unicode="N" glyph-name="N" horiz-adv-x="788" d="M561 700H711V0H567L228 450V0H77V700H221L561 248V700Z" />
<glyph unicode="O" glyph-name="O" horiz-adv-x="806" d="M508 711T594 664T729 535T779 351Q779 250 730 167T594 37T403 -11Q298 -11 212 36T77 166T27 351Q27 452 76 534T211 664T403 711Q508 711 594 664ZM347 573T297 544T218 463T189 351Q189 289 218 238T297
157T405 127Q463 127 511 156T588 237T617 351Q617 412 589 463T512 543T405 573Q347 573 297 544Z" />
<glyph unicode="P" glyph-name="P" horiz-adv-x="678" d="M508 700T581 637T654 457Q654 335 581 268T374 200H235V0H77V700H374Q508 700 581 637ZM433 332T468 362T504 452Q504 510 469 539T366 569H235V332H366Q433 332 468 362Z" />
<glyph unicode="Q" glyph-name="Q" horiz-adv-x="812" d="M816 -85Q776 -121 723 -141T618 -162Q548 -162 491 -123T395 -11Q291 -9 207 39T75 169T27 351Q27 452 76 534T211 664T403 711Q508 711 594 664T729 535T779 351Q779 235 715 144T543 13Q588 -37 636
-37Q661 -37 693 -23T759 18L816 -85ZM189 289T218 238T297 157T405 127Q463 127 511 156T588 237T617 351Q617 412 589 463T512 543T405 573Q347 573 297 544T218 463T189 351Q189 289 218 238Z" />
<glyph unicode="R" glyph-name="R" horiz-adv-x="724" d="M507 0L396 200H381H235V0H77V700H381Q518 700 593 637T668 457Q668 376 635 319T537 231L686 0H507ZM235 332H381Q447 332 482 362T518 452Q518 510 483 539T381 569H235V332Z" />
<glyph unicode="S" glyph-name="S" horiz-adv-x="637" d="M484 538T424 557T320 577Q279 577 255 562T231 518Q231 481 265 462T372 421Q444 400 490 379T570 316T603 205Q603 138 568 90T470 16T329 -9Q244 -9 162 21T20 103L83 232Q136 184 205 155T331 126Q380
126 407 144T435 196Q435 223 417 240T370 269T291 294Q219 314 174 334T95 395T62 504Q62 567 96 614T191 687T333 713Q405 713 475 692T599 636L538 505Q484 538 424 557Z" />
<glyph unicode="T" glyph-name="T" horiz-adv-x="601" d="M8 700H593V566H379V0H221V566H8V700Z" />
<glyph unicode="U" glyph-name="U" horiz-adv-x="753" d="M223 214T265 171T379 127Q448 127 489 170T530 289V700H688V289Q688 197 651 130T543 26T378 -11Q283 -11 212 25T103 129T65 289V700H223V289Q223 214 265 171Z" />
<glyph unicode="V" glyph-name="V" horiz-adv-x="716" d="M0 700H170L361 172L553 700H716L438 0H275L0 700Z" />
<glyph unicode="W" glyph-name="W" horiz-adv-x="1094" d="M931 700H1094L857 0H694L547 505L398 0H236L0 700H170L322 166L473 700H628L781 166L931 700Z" />
<glyph unicode="X" glyph-name="X" horiz-adv-x="721" d="M25 700H209L355 486L502 700H689L456 365L709 0H520L355 233L193 0H8L259 358L25 700Z" />
<glyph unicode="Y" glyph-name="Y" horiz-adv-x="666" d="M669 700L414 226V0H256V222L-3 700H156L335 386L510 700H669Z" />
<glyph unicode="Z" glyph-name="Z" horiz-adv-x="672" d="M44 700H635V594L244 132H641L640 0H31V107L423 568H44V700Z" />
<glyph unicode="[" glyph-name="bracketleft" horiz-adv-x="347" d="M72 742H331V623H209V-5H331V-124H72V742Z" />
<glyph unicode="\" glyph-name="backslash" horiz-adv-x="346" d="M56 812L377 -112H248L-74 812H56Z" />
<glyph unicode="]" glyph-name="bracketright" horiz-adv-x="347" d="M275 742V-124H16V-5H138V623H16V742H275Z" />
<glyph unicode="^" glyph-name="asciicircum" horiz-adv-x="562" d="M531 135H417L281 435L144 135H30L216 525H345L531 135Z" />
<glyph unicode="_" glyph-name="underscore" horiz-adv-x="578" d="M0 -116H577V-204H0V-116Z" />
<glyph unicode="`" glyph-name="grave" horiz-adv-x="346" d="M184 765L288 612L176 602L48 712L184 765Z" />
<glyph unicode="a" glyph-name="a" horiz-adv-x="596" d="M386 0V63Q359 29 316 11T217 -7Q132 -7 82 39T32 161Q32 237 85 279T237 323H385V333Q385 376 357 399T273 423Q198 423 113 376L65 482Q129 514 185 529T308 544Q416 544 475 493T536 351L537 0H386ZM308
103T343 126T385 184V232H264Q219 232 198 218T176 171Q176 140 198 122T260 103Q308 103 343 126Z" />
<glyph unicode="b" glyph-name="b" horiz-adv-x="684" d="M478 543T535 509T624 411T656 266Q656 185 625 124T538 28T406 -6Q350 -6 307 15T233 78V0H79V742H233V459Q262 500 305 521T403 543Q478 543 535 509ZM426 122T463 163T500 271Q500 336 463 377T367
419Q308 419 271 378T233 271Q233 204 270 163T367 122Q426 122 463 163Z" />
<glyph unicode="c" glyph-name="c" horiz-adv-x="563" d="M387 412T313 412Q255 412 219 373T182 268Q182 203 218 163T310 122Q394 122 435 185L541 113Q507 56 446 25T302 -6Q221 -6 159 28T63 124T28 267Q28 349 62 411T159 508T304 543Q381 543 441 514T537
430L433 355Q387 412 313 412Z" />
<glyph unicode="d" glyph-name="d" horiz-adv-x="685" d="M605 742V0H452V79Q423 37 380 16T282 -6Q206 -6 149 28T60 126T28 271Q28 352 59 414T147 510T278 544Q392 544 452 459V742H605ZM377 118T414 159T452 267Q452 333 415 374T318 416Q258 416 221 375T182
267Q183 201 220 160T318 118Q377 118 414 159Z" />
<glyph unicode="e" glyph-name="e" horiz-adv-x="597" d="M435 543T502 468T570 259Q570 235 569 222H183Q196 171 233 143T322 114Q360 114 395 128T458 171L539 89Q498 43 440 19T309 -6Q224 -6 161 28T63 124T28 267Q28 349 63 411T161 508T305 543Q435 543
502 468ZM425 313Q423 366 391 398T306 430Q256 430 223 399T180 313H425Z" />
<glyph unicode="f" glyph-name="f" horiz-adv-x="380" d="M292 622T274 606T256 559V514H383V407H256V0H103V407H31V514H103V565Q103 623 129 664T201 727T301 749Q353 749 407 727L384 607Q369 613 352 617T320 622Q292 622 274 606Z" />
<glyph unicode="g" glyph-name="g" horiz-adv-x="645" d="M578 538V50Q578 -26 542 -82T441 -169T291 -200Q225 -200 166 -181T57 -129L114 -21Q190 -75 281 -75Q347 -75 386 -43T425 45V106Q398 68 357 48T263 28Q194 28 141 60T58 152T28 288Q28 364 57 421T140
511T263 543Q315 543 356 523T425 465V538H578ZM355 145T390 183T425 284Q425 346 390 385T299 424Q243 424 208 385T172 284Q173 222 207 184T299 145Q355 145 390 183Z" />
<glyph unicode="h" glyph-name="h" horiz-adv-x="675" d="M510 544T563 488T617 338V0H463V293Q463 344 435 373T357 403Q300 402 267 364T233 265V0H79V742H233V443Q289 542 419 544Q510 544 563 488Z" />
<glyph unicode="i" glyph-name="i" horiz-adv-x="302" d="M74 538H228V0H74V538ZM187 777T210 753T234 691Q234 653 211 629T150 605Q114 605 91 629T67 691Q67 729 90 753T150 777Q187 777 210 753Z" />
<glyph unicode="j" glyph-name="j" horiz-adv-x="298" d="M-7 -74T13 -75Q44 -76 60 -56T76 2V538H229V-22Q229 -105 181 -152T49 -200Q-13 -200 -62 -179L-30 -67Q-7 -74 13 -75ZM187 777T210 753T234 691Q234 653 211 629T150 605Q114 605 91 629T67 691Q67
729 90 753T150 777Q187 777 210 753Z" />
<glyph unicode="k" glyph-name="k" horiz-adv-x="619" d="M432 0L302 219L233 146V0H79V742H233V334L430 537H605L408 330L614 0H432Z" />
<glyph unicode="l" glyph-name="l" horiz-adv-x="313" d="M79 742H233V0H79V742Z" />
<glyph unicode="m" glyph-name="m" horiz-adv-x="1039" d="M875 544T927 489T980 338V0H827V293Q827 345 799 374T723 403Q668 402 636 364T604 266V0H451V293Q451 344 424 373T348 403Q293 402 261 364T228 266V0H74V538H228V445Q284 542 410 544Q478 544 525
512T592 420Q618 481 667 512T786 544Q875 544 927 489Z" />
<glyph unicode="n" glyph-name="n" horiz-adv-x="670" d="M504 544T557 488T611 338V0H457V293Q457 344 429 373T351 403Q294 402 261 364T228 265V0H74V538H228V444Q284 542 414 544Q504 544 557 488Z" />
<glyph unicode="o" glyph-name="o" horiz-adv-x="633" d="M402 543T467 509T569 413T605 269Q605 188 569 126T468 29T317 -6Q231 -6 166 28T64 125T28 269Q28 351 64 413T165 509T317 543Q402 543 467 509ZM257 415T220 374T182 267Q182 201 219 160T317 119Q376
119 413 160T451 267Q451 333 414 374T317 415Q257 415 220 374Z" />
<glyph unicode="p" glyph-name="p" horiz-adv-x="684" d="M478 543T535 509T624 411T656 266Q656 185 625 124T538 28T406 -6Q350 -6 307 15T233 78V-194H79V538H233V459Q262 500 305 521T403 543Q478 543 535 509ZM426 122T463 163T500 271Q500 336 463 377T367
419Q308 419 271 378T233 271Q233 204 270 163T367 122Q426 122 463 163Z" />
<glyph unicode="q" glyph-name="q" horiz-adv-x="685" d="M605 538V-194H452V79Q423 37 380 16T282 -6Q206 -6 149 28T60 126T28 271Q28 352 59 414T147 510T278 544Q392 544 452 459V538H605ZM377 118T414 159T452 267Q452 333 415 374T318 416Q258 416 221 375T182
267Q183 201 220 160T318 118Q377 118 414 159Z" />
<glyph unicode="r" glyph-name="r" horiz-adv-x="416" d="M256 491T301 517T406 544V399Q398 400 382 400Q311 400 270 362T228 259V0H74V538H228V441Q256 491 301 517Z" />
<glyph unicode="s" glyph-name="s" horiz-adv-x="499" d="M369 405T326 418T249 432Q221 432 204 422T187 392Q187 370 210 358T285 331Q342 314 379 298T443 249T470 163Q470 83 409 39T251 -6Q185 -6 124 13T18 69L68 173Q109 141 159 124T255 106Q286 106 304
116T323 148Q323 171 300 184T224 212Q169 228 133 244T70 292T44 377Q44 457 104 501T256 545Q311 545 366 530T466 485L413 380Q369 405 326 418Z" />
<glyph unicode="t" glyph-name="t" horiz-adv-x="426" d="M407 30Q377 12 341 3T267 -7Q192 -7 145 36T98 159V408H23V514H98V662H251V514H397V407H251V185Q251 123 300 123Q334 123 375 143L407 30Z" />
<glyph unicode="u" glyph-name="u" horiz-adv-x="660" d="M585 538V0H432V95Q377 -6 252 -6Q163 -6 111 49T58 200V538H212V244Q212 193 239 164T313 135Q368 136 400 174T432 272V538H585Z" />
<glyph unicode="v" glyph-name="v" horiz-adv-x="556" d="M-3 537L156 538L283 146L409 538H562L359 0H201L-3 537Z" />
<glyph unicode="w" glyph-name="w" horiz-adv-x="923" d="M-3 537L154 538L274 153L390 538H541L659 153L777 538H929L733 0H579L463 355L348 0H194L-3 537Z" />
<glyph unicode="x" glyph-name="x" horiz-adv-x="589" d="M20 538H196L295 375L400 538H568L397 276L580 0H403L295 176L177 0H7L193 275L20 538Z" />
<glyph unicode="y" glyph-name="y" horiz-adv-x="564" d="M279 -201T138 -201Q95 -201 60 -189T-8 -149L57 -38Q92 -67 127 -67Q176 -67 198 -19L213 11L-10 538H149L290 168L417 538H571L335 -60Q279 -201 138 -201Z" />
<glyph unicode="z" glyph-name="z" horiz-adv-x="548" d="M48 537H507V440L230 121H516V-1L38 0V97L315 416L48 417V537Z" />
<glyph unicode="{" glyph-name="braceleft" horiz-adv-x="356" d="M245 389T235 368T205 336T147 309Q185 294 204 282T234 249T245 191V59Q245 22 264 8T335 -7V-126H276Q213 -126 177 -113T124 -70T107 11V201Q107 226 98 237T68 248H32V370H68Q89 370 98 380T107
416V606Q107 657 123 686T176 729T276 743H335V624Q283 624 264 610T245 558V426Q245 389 235 368Z" />
<glyph unicode="|" glyph-name="bar" horiz-adv-x="289" d="M87 805H202V-111H87V805Z" />
<glyph unicode="}" glyph-name="braceright" horiz-adv-x="356" d="M324 370V248H288Q267 248 258 237T249 201V11Q249 -40 233 -69T180 -112T80 -126H21V-7Q73 -7 92 7T111 59V191Q111 228 121 249T151 282T209 309Q171 324 152 335T122 368T111 426V558Q111
595 92 609T21 624V743H80Q143 743 179 730T232 687T249 606V416Q249 391 258 381T288 370H324Z" />
<glyph unicode="~" glyph-name="asciitilde" horiz-adv-x="506" d="M447 321T421 281T340 240Q314 240 295 248T246 272Q229 282 219 287T198 292Q164 292 164 245H60Q60 327 86 367T167 408Q192 408 213 400T260 375Q276 365 287 360T309 355Q343 355 343 403H447Q447
321 421 281Z" />
<glyph unicode="&#xa0;" glyph-name="uni00A0" horiz-adv-x="234" />
<glyph unicode="&#xa1;" glyph-name="exclamdown" horiz-adv-x="240" d="M97 387T76 409T54 466Q54 501 75 523T131 546Q164 546 186 523T208 466Q208 431 186 409T131 387Q97 387 76 409ZM203 -158H56V19L83 301H176L203 19V-158Z" />
<glyph unicode="&#xa2;" glyph-name="cent" horiz-adv-x="600" d="M514 68T469 39T365 -1V-150H250V-2Q149 14 89 86T28 267Q28 376 88 449T250 539V695H365V538Q420 528 464 501T537 430L433 355Q387 412 313 412Q255 412 219 373T182 268Q182 203 218 163T310
122Q394 122 435 185L541 113Q514 68 469 39Z" />
<glyph unicode="&#xa3;" glyph-name="sterling" horiz-adv-x="557" d="M268 125H533V0H31V125H109V314H31V378H109V476Q109 586 169 646T339 707Q399 707 452 685T547 620L487 500Q421 569 356 569Q313 569 291 545T268 473V378H438V314H268V125Z" />
<glyph unicode="&#xa4;" glyph-name="currency" horiz-adv-x="705" d="M616 247T576 183L677 82L590 -8L485 97Q423 62 352 62Q281 62 219 97L114 -8L28 82L129 184Q89 248 89 321Q89 391 126 454L28 553L114 643L215 542Q277 581 352 581Q427 581 490 543L590
643L677 553L578 454Q616 392 616 321Q616 247 576 183ZM391 187T424 205T476 254T496 321Q496 357 477 388T424 437T352 456Q313 456 281 438T229 389T210 321Q210 285 229 254T280 205T352 187Q391 187 424 205Z" />
<glyph unicode="&#xa5;" glyph-name="yen" horiz-adv-x="672" d="M672 700L466 317H611V253H431L417 226V199H611V135H417V0H259V135H65V199H259V222L242 253H65V317H207L0 700H158L338 386L513 700H672Z" />
<glyph unicode="&#xa6;" glyph-name="brokenbar" horiz-adv-x="289" d="M87 805H202V461H87V805ZM87 232H202V-111H87V232Z" />
<glyph unicode="&#xa7;" glyph-name="section" horiz-adv-x="530" d="M341 589T276 589Q242 589 222 577T201 545Q201 520 228 505T314 472Q373 454 410 437T475 389T503 307Q503 264 475 228T401 175Q439 155 456 132T473 70Q473 25 446 -11T370 -67T255 -87Q191
-87 129 -67T18 -10L62 88Q109 55 157 38T251 20Q288 20 310 33T332 66Q332 90 306 104T223 137Q164 156 127 173T62 221T35 302Q35 348 64 381T146 433Q100 455 82 479T64 538Q64 583 90 618T164 674T275 694Q386 694 486 635L439 537Q341 589 276 589ZM214 359T193
347T172 312Q172 285 203 268T281 250Q320 250 341 263T363 298Q363 325 332 342T253 359Q214 359 193 347Z" />
<glyph unicode="&#xa8;" glyph-name="dieresis" horiz-adv-x="403" d="M149 758T169 738T189 686Q189 655 169 635T119 615Q88 615 69 635T49 686Q49 718 68 738T119 758Q149 758 169 738ZM336 758T355 738T375 686Q375 655 356 635T305 615Q275 615 255 635T235
686Q235 717 255 737T305 758Q336 758 355 738Z" />
<glyph unicode="&#xa9;" glyph-name="copyright" horiz-adv-x="732" d="M459 689T536 644T659 520T704 350Q704 259 659 181T536 56T364 9Q271 9 194 55T72 179T27 348Q27 439 72 517T194 642T366 689Q459 689 536 644ZM292 614T231 578T135 481T99 348Q99 276
134 216T229 120T364 84Q438 84 499 120T596 217T632 350Q632 422 597 482T501 578T366 614Q292 614 231 578ZM442 428T419 439T373 451Q330 451 301 422T272 350Q272 307 301 278T373 248Q395 248 418 258T460 287L504 239Q478 212 442 196T369 180Q320 180 281
202T218 263T195 349Q195 396 218 434T282 494T372 516Q408 516 443 502T504 461L460 408Q442 428 419 439Z" />
<glyph unicode="&#xaa;" glyph-name="ordfeminine" horiz-adv-x="390" d="M245 458V502Q210 453 137 453Q85 453 55 480T25 553Q25 598 58 622T154 647H244V654Q244 678 227 690T177 703Q130 703 71 678L46 749Q130 783 202 783Q271 783 310 753T348 667L349 458H245ZM221
522T244 560V596H176Q125 596 125 561Q125 543 138 533T173 522Q221 522 244 560Z" />
<glyph unicode="&#xab;" glyph-name="guillemotleft" horiz-adv-x="487" d="M128 446H254L147 265L254 83H128L9 265L128 446ZM336 446H462L355 265L462 83H336L217 265L336 446Z" />
<glyph unicode="&#xac;" glyph-name="logicalnot" horiz-adv-x="573" d="M505 421V139H394V319H33V421H505Z" />
<glyph unicode="&#xad;" glyph-name="uni00AD" horiz-adv-x="372" d="M57 357H315V255H57V357Z" />
<glyph unicode="&#xae;" glyph-name="registered" horiz-adv-x="732" d="M459 689T536 644T659 520T704 350Q704 259 659 181T536 56T364 9Q271 9 194 55T72 179T27 348Q27 439 72 517T194 642T366 689Q459 689 536 644ZM438 84T499 120T596 217T632 350Q632 422
597 482T501 578T366 614Q292 614 231 578T135 481T99 348Q99 276 134 216T229 120T364 84Q438 84 499 120ZM509 372T493 346T447 305L518 197H435L383 291H375H309V197H237V522H375Q439 522 474 493T509 410Q509 372 493 346ZM309 349H375Q406 349 423 364T440
407Q440 435 423 449T375 464H309V349Z" />
<glyph unicode="&#xaf;" glyph-name="overscore" horiz-adv-x="346" d="M24 735H327V641H24V735Z" />
<glyph unicode="&#xb0;" glyph-name="degree" horiz-adv-x="365" d="M249 815T284 781T319 698Q319 650 284 616T200 581Q152 581 118 615T83 698Q83 746 117 780T200 815Q249 815 284 781ZM177 752T161 736T144 698Q144 676 160 660T200 644Q224 644 241 660T258
698Q258 720 241 736T200 752Q177 752 161 736Z" />
<glyph unicode="&#xb1;" glyph-name="plusminus" horiz-adv-x="506" d="M302 448H473V349H302V186H204V349H33V448H204V612H302V448ZM33 6V108H473V6H33Z" />
<glyph unicode="&#xb2;" glyph-name="uni00B2" horiz-adv-x="372" d="M195 605T207 624T219 656Q219 673 206 682T169 692Q143 692 112 678T51 639L9 718Q98 781 186 781Q251 781 292 751T333 671Q333 610 251 533L160 444H346V360H22V430L177 587Q195 605 207 624Z" />
<glyph unicode="&#xb3;" glyph-name="uni00B3" horiz-adv-x="364" d="M280 596T309 567T339 490Q339 430 294 393T173 355Q128 355 85 369T11 406L56 489Q104 437 164 437Q196 437 214 451T232 490Q232 514 215 527T164 540H95V598L195 695H33V774H319V713L210
608L231 604Q280 596 309 567Z" />
<glyph unicode="&#xb4;" glyph-name="acute" horiz-adv-x="350" d="M164 765L300 712L164 602L52 612L164 765Z" />
<glyph unicode="&#xb5;" glyph-name="uni00B5" horiz-adv-x="681" d="M606 538V0H453V95Q398 -6 273 -6Q253 -6 233 -3V-194H79V538H233V244Q233 193 260 164T334 135Q389 136 421 174T453 272V538H606Z" />
<glyph unicode="&#xb6;" glyph-name="paragraph" horiz-adv-x="639" d="M193 333Q120 333 76 364T14 441T-4 533Q-4 589 20 636T98 713T233 742H561V-107H446V651H336V-107H221V333H193Z" />
<glyph unicode="&#xb7;" glyph-name="middot" horiz-adv-x="232" d="M151 375T174 351T198 289Q198 251 175 227T114 203Q78 203 55 227T31 289Q31 327 54 351T114 375Q151 375 174 351Z" />
<glyph unicode="&#xb8;" glyph-name="cedilla" horiz-adv-x="311" d="M226 0L206 -54Q248 -63 268 -84T288 -135Q288 -181 253 -205T165 -229Q114 -229 60 -208L86 -133Q113 -143 140 -143Q158 -143 169 -137T181 -121Q181 -109 167 -103T129 -96H102L136 9L226 0Z" />
<glyph unicode="&#xb9;" glyph-name="uni00B9" horiz-adv-x="253" d="M3 776H193V360H83V689H3V776Z" />
<glyph unicode="&#xba;" glyph-name="ordmasculine" horiz-adv-x="411" d="M287 783T337 738T387 619Q387 545 337 500T205 455Q123 455 74 500T24 619Q24 693 73 738T205 783Q287 783 337 738ZM172 698T151 676T130 617Q130 581 151 559T205 537Q239 537 259
559T280 617Q280 654 260 676T205 698Q172 698 151 676Z" />
<glyph unicode="&#xbb;" glyph-name="guillemotright" horiz-adv-x="495" d="M151 83H25L132 264L25 446H151L270 264L151 83ZM359 83H233L340 264L233 446H359L478 264L359 83Z" />
<glyph unicode="&#xbc;" glyph-name="onequarter" horiz-adv-x="812" d="M3 700H193V284H83V613H3V700ZM567 700H677L173 0H61L567 700ZM581 416H685L554 169H649V261H751V169H810V90H751V0H649V90H444V163L581 416Z" />
<glyph unicode="&#xbd;" glyph-name="onehalf" horiz-adv-x="849" d="M3 700H193V284H83V613H3V700ZM567 700H677L173 0H61L567 700ZM672 245T684 264T696 296Q696 313 683 322T646 332Q620 332 589 318T528 279L486 358Q575 421 663 421Q728 421 769 391T810
311Q810 250 728 173L637 84H823V0H499V70L654 227Q672 245 684 264Z" />
<glyph unicode="&#xbe;" glyph-name="threequarters" horiz-adv-x="892" d="M280 521T309 492T339 415Q339 355 294 318T173 280Q128 280 85 294T11 331L56 414Q104 362 164 362Q196 362 214 376T232 415Q232 439 215 452T164 465H95V523L195 620H33V699H319V638L210
533L231 529Q280 521 309 492ZM647 700H757L253 0H141L647 700ZM661 416H765L634 169H729V261H831V169H890V90H831V0H729V90H524V163L661 416Z" />
<glyph unicode="&#xbf;" glyph-name="questiondown" horiz-adv-x="462" d="M208 387T187 409T165 466Q165 501 186 523T242 546Q275 546 297 523T319 466Q319 431 297 409T242 387Q208 387 187 409ZM439 -48T380 -106T219 -164Q121 -164 65 -119T8 9Q8 47 21 76T52
125T102 172Q143 208 162 235T182 301H297Q297 261 286 232T258 183T214 137Q182 108 167 87T152 33Q152 -2 173 -19T232 -37Q318 -37 321 57L440 56Q439 -48 380 -106Z" />
<glyph unicode="&#xc0;" glyph-name="Agrave" horiz-adv-x="759" d="M594 0L539 136H215L160 0H-3L301 700H464L763 0H594ZM267 263H488L378 535L267 263ZM345 916L449 763L337 753L209 863L345 916Z" />
<glyph unicode="&#xc1;" glyph-name="Aacute" horiz-adv-x="759" d="M594 0L539 136H215L160 0H-3L301 700H464L763 0H594ZM267 263H488L378 535L267 263ZM415 916L551 863L415 753L303 763L415 916Z" />
<glyph unicode="&#xc2;" glyph-name="Acircumflex" horiz-adv-x="759" d="M594 0L539 136H215L160 0H-3L301 700H464L763 0H594ZM267 263H488L378 535L267 263ZM559 759H437L380 824L322 759H201L309 907H450L559 759Z" />
<glyph unicode="&#xc3;" glyph-name="Atilde" horiz-adv-x="759" d="M594 0L539 136H215L160 0H-3L301 700H464L763 0H594ZM267 263H488L378 535L267 263ZM555 833T534 794T463 755Q441 755 421 762T374 784Q362 791 350 796T330 801Q315 801 309 791T302 758H211Q211
830 232 869T303 908Q325 908 345 901T392 879Q423 861 436 861Q451 861 457 872T464 904H555Q555 833 534 794Z" />
<glyph unicode="&#xc4;" glyph-name="Adieresis" horiz-adv-x="759" d="M594 0L539 136H215L160 0H-3L301 700H464L763 0H594ZM267 263H488L378 535L267 263ZM318 900T337 880T357 828Q357 797 338 777T287 756Q256 756 237 776T217 828Q217 860 236 880T287 900Q318
900 337 880ZM504 900T524 880T544 828Q544 797 524 777T474 756Q443 756 423 776T403 828Q403 859 423 879T474 900Q504 900 524 880Z" />
<glyph unicode="&#xc5;" glyph-name="Aring" horiz-adv-x="759" d="M594 0L539 136H215L160 0H-3L301 700H464L763 0H594ZM267 263H488L378 535L267 263ZM428 972T462 938T496 857Q496 809 462 775T380 741Q332 741 298 775T264 857Q264 904 298 938T380 972Q428
972 462 938ZM360 902T347 889T333 857Q333 838 346 825T380 811Q400 811 413 824T427 857Q427 876 414 889T380 902Q360 902 347 889Z" />
<glyph unicode="&#xc6;" glyph-name="AE" horiz-adv-x="1085" d="M652 132H1038V0H495V154H245L162 0H-3L398 700H1027V569H652V417H990V286H652V132ZM310 274H495V574H473L310 274Z" />
<glyph unicode="&#xc7;" glyph-name="Ccedilla" horiz-adv-x="694" d="M628 64T563 32T430 -9L413 -54Q455 -63 475 -84T495 -135Q495 -181 460 -205T372 -229Q321 -229 267 -208L293 -133Q320 -143 347 -143Q365 -143 376 -137T388 -121Q388 -109 374 -103T336
-96H309L338 -7Q248 5 178 55T67 182T27 352Q27 453 76 535T210 664T400 711Q476 711 550 680T676 594L584 481Q548 524 500 548T402 573Q343 573 294 544T217 465T189 354Q189 293 217 243T294 163T402 133Q449 133 497 155T584 216L677 115Q628 64 563 32Z" />
<glyph unicode="&#xc8;" glyph-name="Egrave" horiz-adv-x="668" d="M77 700H610V569H235V417H572V286H235V131H621V0H77V700ZM315 916L419 763L307 753L179 863L315 916Z" />
<glyph unicode="&#xc9;" glyph-name="Eacute" horiz-adv-x="668" d="M77 700H610V569H235V417H572V286H235V131H621V0H77V700ZM385 916L521 863L385 753L273 763L385 916Z" />
<glyph unicode="&#xca;" glyph-name="Ecircumflex" horiz-adv-x="668" d="M77 700H610V569H235V417H572V286H235V131H621V0H77V700ZM529 759H407L350 824L292 759H171L279 907H420L529 759Z" />
<glyph unicode="&#xcb;" glyph-name="Edieresis" horiz-adv-x="668" d="M77 700H610V569H235V417H572V286H235V131H621V0H77V700ZM288 900T307 880T327 828Q327 797 308 777T257 756Q226 756 207 776T187 828Q187 860 206 880T257 900Q288 900 307 880ZM474 900T494
880T514 828Q514 797 494 777T444 756Q413 756 393 776T373 828Q373 859 393 879T444 900Q474 900 494 880Z" />
<glyph unicode="&#xcc;" glyph-name="Igrave" horiz-adv-x="313" d="M77 700H235V0H77V700ZM121 916L225 763L113 753L-15 863L121 916Z" />
<glyph unicode="&#xcd;" glyph-name="Iacute" horiz-adv-x="313" d="M77 700H235V0H77V700ZM191 916L327 863L191 753L79 763L191 916Z" />
<glyph unicode="&#xce;" glyph-name="Icircumflex" horiz-adv-x="313" d="M77 700H235V0H77V700ZM335 759H213L156 824L98 759H-23L85 907H226L335 759Z" />
<glyph unicode="&#xcf;" glyph-name="Idieresis" horiz-adv-x="313" d="M77 700H235V0H77V700ZM94 900T113 880T133 828Q133 797 114 777T63 756Q32 756 13 776T-7 828Q-7 860 12 880T63 900Q94 900 113 880ZM280 900T300 880T320 828Q320 797 300 777T250 756Q219
756 199 776T179 828Q179 859 199 879T250 900Q280 900 300 880Z" />
<glyph unicode="&#xd0;" glyph-name="Eth" horiz-adv-x="769" d="M481 700T565 656T695 532T742 350Q742 248 695 169T562 45T368 0H77V311H9V390H77V700H373Q481 700 565 656ZM435 133T481 160T554 237T581 349Q581 412 554 462T478 539T370 567H235V390H410V311H235V133H377Q435
133 481 160Z" />
<glyph unicode="&#xd1;" glyph-name="Ntilde" horiz-adv-x="788" d="M561 700H711V0H567L228 450V0H77V700H221L561 248V700ZM576 833T555 794T484 755Q462 755 442 762T395 784Q383 791 371 796T351 801Q336 801 330 791T323 758H232Q232 830 253 869T324 908Q346
908 366 901T413 879Q444 861 457 861Q472 861 478 872T485 904H576Q576 833 555 794Z" />
<glyph unicode="&#xd2;" glyph-name="Ograve" horiz-adv-x="806" d="M508 711T594 664T729 535T779 351Q779 250 730 167T594 37T403 -11Q298 -11 212 36T77 166T27 351Q27 452 76 534T211 664T403 711Q508 711 594 664ZM347 573T297 544T218 463T189 351Q189
289 218 238T297 157T405 127Q463 127 511 156T588 237T617 351Q617 412 589 463T512 543T405 573Q347 573 297 544ZM368 916L472 763L360 753L232 863L368 916Z" />
<glyph unicode="&#xd3;" glyph-name="Oacute" horiz-adv-x="806" d="M508 711T594 664T729 535T779 351Q779 250 730 167T594 37T403 -11Q298 -11 212 36T77 166T27 351Q27 452 76 534T211 664T403 711Q508 711 594 664ZM347 573T297 544T218 463T189 351Q189
289 218 238T297 157T405 127Q463 127 511 156T588 237T617 351Q617 412 589 463T512 543T405 573Q347 573 297 544ZM438 916L574 863L438 753L326 763L438 916Z" />
<glyph unicode="&#xd4;" glyph-name="Ocircumflex" horiz-adv-x="806" d="M508 711T594 664T729 535T779 351Q779 250 730 167T594 37T403 -11Q298 -11 212 36T77 166T27 351Q27 452 76 534T211 664T403 711Q508 711 594 664ZM347 573T297 544T218 463T189 351Q189
289 218 238T297 157T405 127Q463 127 511 156T588 237T617 351Q617 412 589 463T512 543T405 573Q347 573 297 544ZM582 759H460L403 824L345 759H224L332 907H473L582 759Z" />
<glyph unicode="&#xd5;" glyph-name="Otilde" horiz-adv-x="806" d="M508 711T594 664T729 535T779 351Q779 250 730 167T594 37T403 -11Q298 -11 212 36T77 166T27 351Q27 452 76 534T211 664T403 711Q508 711 594 664ZM347 573T297 544T218 463T189 351Q189
289 218 238T297 157T405 127Q463 127 511 156T588 237T617 351Q617 412 589 463T512 543T405 573Q347 573 297 544ZM578 833T557 794T486 755Q464 755 444 762T397 784Q385 791 373 796T353 801Q338 801 332 791T325 758H234Q234 830 255 869T326 908Q348 908
368 901T415 879Q446 861 459 861Q474 861 480 872T487 904H578Q578 833 557 794Z" />
<glyph unicode="&#xd6;" glyph-name="Odieresis" horiz-adv-x="806" d="M508 711T594 664T729 535T779 351Q779 250 730 167T594 37T403 -11Q298 -11 212 36T77 166T27 351Q27 452 76 534T211 664T403 711Q508 711 594 664ZM347 573T297 544T218 463T189 351Q189
289 218 238T297 157T405 127Q463 127 511 156T588 237T617 351Q617 412 589 463T512 543T405 573Q347 573 297 544ZM341 900T360 880T380 828Q380 797 361 777T310 756Q279 756 260 776T240 828Q240 860 259 880T310 900Q341 900 360 880ZM527 900T547 880T567
828Q567 797 547 777T497 756Q466 756 446 776T426 828Q426 859 446 879T497 900Q527 900 547 880Z" />
<glyph unicode="&#xd7;" glyph-name="multiply" horiz-adv-x="506" d="M443 446L324 326L443 206L373 134L253 255L133 134L63 206L182 326L63 446L133 518L253 397L373 518L443 446Z" />
<glyph unicode="&#xd8;" glyph-name="Oslash" horiz-adv-x="806" d="M703 582T741 509T779 349Q779 249 730 167T594 38T403 -9Q321 -9 248 21L199 -55H90L167 66Q101 116 64 189T27 349Q27 449 76 530T211 657T403 703Q483 703 556 675L607 755H716L637 630Q703
582 741 509ZM189 304T205 265T250 196L478 552Q445 565 405 565Q347 565 297 537T218 459T189 348Q189 304 205 265ZM463 129T511 158T588 237T617 348Q617 393 601 433T555 503L326 144Q363 129 405 129Q463 129 511 158Z" />
<glyph unicode="&#xd9;" glyph-name="Ugrave" horiz-adv-x="753" d="M223 214T265 171T379 127Q448 127 489 170T530 289V700H688V289Q688 197 651 130T543 26T378 -11Q283 -11 212 25T103 129T65 289V700H223V289Q223 214 265 171ZM342 916L446 763L334 753L206
863L342 916Z" />
<glyph unicode="&#xda;" glyph-name="Uacute" horiz-adv-x="753" d="M223 214T265 171T379 127Q448 127 489 170T530 289V700H688V289Q688 197 651 130T543 26T378 -11Q283 -11 212 25T103 129T65 289V700H223V289Q223 214 265 171ZM412 916L548 863L412 753L300
763L412 916Z" />
<glyph unicode="&#xdb;" glyph-name="Ucircumflex" horiz-adv-x="753" d="M223 214T265 171T379 127Q448 127 489 170T530 289V700H688V289Q688 197 651 130T543 26T378 -11Q283 -11 212 25T103 129T65 289V700H223V289Q223 214 265 171ZM556 759H434L377 824L319
759H198L306 907H447L556 759Z" />
<glyph unicode="&#xdc;" glyph-name="Udieresis" horiz-adv-x="753" d="M223 214T265 171T379 127Q448 127 489 170T530 289V700H688V289Q688 197 651 130T543 26T378 -11Q283 -11 212 25T103 129T65 289V700H223V289Q223 214 265 171ZM315 900T334 880T354 828Q354
797 335 777T284 756Q253 756 234 776T214 828Q214 860 233 880T284 900Q315 900 334 880ZM501 900T521 880T541 828Q541 797 521 777T471 756Q440 756 420 776T400 828Q400 859 420 879T471 900Q501 900 521 880Z" />
<glyph unicode="&#xdd;" glyph-name="Yacute" horiz-adv-x="666" d="M669 700L414 226V0H256V222L-3 700H156L335 386L510 700H669ZM368 916L504 863L368 753L256 763L368 916Z" />
<glyph unicode="&#xde;" glyph-name="Thorn" horiz-adv-x="685" d="M505 606T583 543T662 367Q662 248 584 182T366 115H235V0H77V700H235V606H366Q505 606 583 543ZM428 241T464 272T500 362Q500 419 464 449T359 480H235V241H359Q428 241 464 272Z" />
<glyph unicode="&#xdf;" glyph-name="germandbls" horiz-adv-x="660" d="M65 569T97 627T189 717T330 749Q404 749 460 725T548 655T580 551Q580 497 552 451T477 383Q543 366 582 322T622 213Q622 150 589 102T493 27T349 0H299V114H346Q405 114 438 141T472
213Q472 260 435 285T330 310H313V423Q369 423 400 450T431 528Q431 576 404 602T330 629Q277 629 248 596T218 502V0H65V491Q65 569 97 627Z" />
<glyph unicode="&#xe0;" glyph-name="agrave" horiz-adv-x="596" d="M386 0V63Q359 29 316 11T217 -7Q132 -7 82 39T32 161Q32 237 85 279T237 323H385V333Q385 376 357 399T273 423Q198 423 113 376L65 482Q129 514 185 529T308 544Q416 544 475 493T536 351L537
0H386ZM308 103T343 126T385 184V232H264Q219 232 198 218T176 171Q176 140 198 122T260 103Q308 103 343 126ZM261 765L365 612L253 602L125 712L261 765Z" />
<glyph unicode="&#xe1;" glyph-name="aacute" horiz-adv-x="596" d="M386 0V63Q359 29 316 11T217 -7Q132 -7 82 39T32 161Q32 237 85 279T237 323H385V333Q385 376 357 399T273 423Q198 423 113 376L65 482Q129 514 185 529T308 544Q416 544 475 493T536 351L537
0H386ZM308 103T343 126T385 184V232H264Q219 232 198 218T176 171Q176 140 198 122T260 103Q308 103 343 126ZM330 765L466 712L330 602L218 612L330 765Z" />
<glyph unicode="&#xe2;" glyph-name="acircumflex" horiz-adv-x="596" d="M386 0V63Q359 29 316 11T217 -7Q132 -7 82 39T32 161Q32 237 85 279T237 323H385V333Q385 376 357 399T273 423Q198 423 113 376L65 482Q129 514 185 529T308 544Q416 544 475 493T536
351L537 0H386ZM308 103T343 126T385 184V232H264Q219 232 198 218T176 171Q176 140 198 122T260 103Q308 103 343 126ZM475 612H353L296 677L238 612H117L225 760H366L475 612Z" />
<glyph unicode="&#xe3;" glyph-name="atilde" horiz-adv-x="596" d="M386 0V63Q359 29 316 11T217 -7Q132 -7 82 39T32 161Q32 237 85 279T237 323H385V333Q385 376 357 399T273 423Q198 423 113 376L65 482Q129 514 185 529T308 544Q416 544 475 493T536 351L537
0H386ZM308 103T343 126T385 184V232H264Q219 232 198 218T176 171Q176 140 198 122T260 103Q308 103 343 126ZM471 678T450 639T379 600Q357 600 337 607T290 629Q278 636 266 641T246 646Q231 646 225 636T218 603H127Q127 675 148 714T219 753Q241 753 261 746T308
724Q339 706 352 706Q367 706 373 717T380 749H471Q471 678 450 639Z" />
<glyph unicode="&#xe4;" glyph-name="adieresis" horiz-adv-x="596" d="M386 0V63Q359 29 316 11T217 -7Q132 -7 82 39T32 161Q32 237 85 279T237 323H385V333Q385 376 357 399T273 423Q198 423 113 376L65 482Q129 514 185 529T308 544Q416 544 475 493T536 351L537
0H386ZM308 103T343 126T385 184V232H264Q219 232 198 218T176 171Q176 140 198 122T260 103Q308 103 343 126ZM233 758T253 738T273 686Q273 655 253 635T203 615Q172 615 153 635T133 686Q133 718 152 738T203 758Q233 758 253 738ZM420 758T439 738T459 686Q459
655 440 635T389 615Q359 615 339 635T319 686Q319 717 339 737T389 758Q420 758 439 738Z" />
<glyph unicode="&#xe5;" glyph-name="aring" horiz-adv-x="596" d="M386 0V63Q359 29 316 11T217 -7Q132 -7 82 39T32 161Q32 237 85 279T237 323H385V333Q385 376 357 399T273 423Q198 423 113 376L65 482Q129 514 185 529T308 544Q416 544 475 493T536 351L537
0H386ZM308 103T343 126T385 184V232H264Q219 232 198 218T176 171Q176 140 198 122T260 103Q308 103 343 126ZM344 810T378 776T412 695Q412 647 378 613T296 579Q248 579 214 613T180 695Q180 742 214 776T296 810Q344 810 378 776ZM276 740T263 727T249 695Q249
676 262 663T296 649Q316 649 329 662T343 695Q343 714 330 727T296 740Q276 740 263 727Z" />
<glyph unicode="&#xe6;" glyph-name="ae" horiz-adv-x="969" d="M548 177T589 146T684 114Q723 114 758 129T821 172L902 88Q860 42 802 18T672 -6Q595 -6 538 24T448 111Q416 53 360 23T225 -7Q137 -7 85 38T32 158Q32 233 85 273T238 314H387V337Q385 378 356
400T274 423Q236 423 191 411T101 376L65 484Q194 544 308 544Q369 544 415 527T491 478Q558 543 667 543Q753 543 816 505T912 397T941 234H544V223Q548 177 589 146ZM787 366T754 400T669 435Q618 435 584 401T542 312H788Q787 366 754 400ZM224 237T200 220T176
171Q176 137 199 117T261 97Q347 97 388 171L387 237H269Q224 237 200 220Z" />
<glyph unicode="&#xe7;" glyph-name="ccedilla" horiz-adv-x="563" d="M512 64T461 34T344 -4L325 -54Q367 -63 387 -84T407 -135Q407 -181 372 -205T284 -229Q233 -229 179 -208L205 -133Q232 -143 259 -143Q277 -143 288 -137T300 -121Q300 -109 286 -103T248
-96H221L251 -2Q149 13 89 86T28 267Q28 349 62 411T159 508T304 543Q381 543 441 514T537 430L433 355Q387 412 313 412Q255 412 219 373T182 268Q182 203 218 163T310 122Q394 122 435 185L541 113Q512 64 461 34Z" />
<glyph unicode="&#xe8;" glyph-name="egrave" horiz-adv-x="597" d="M435 543T502 468T570 259Q570 235 569 222H183Q196 171 233 143T322 114Q360 114 395 128T458 171L539 89Q498 43 440 19T309 -6Q224 -6 161 28T63 124T28 267Q28 349 63 411T161 508T305 543Q435
543 502 468ZM425 313Q423 366 391 398T306 430Q256 430 223 399T180 313H425ZM265 764L369 611L257 601L129 711L265 764Z" />
<glyph unicode="&#xe9;" glyph-name="eacute" horiz-adv-x="597" d="M435 543T502 468T570 259Q570 235 569 222H183Q196 171 233 143T322 114Q360 114 395 128T458 171L539 89Q498 43 440 19T309 -6Q224 -6 161 28T63 124T28 267Q28 349 63 411T161 508T305 543Q435
543 502 468ZM425 313Q423 366 391 398T306 430Q256 430 223 399T180 313H425ZM334 764L470 711L334 601L222 611L334 764Z" />
<glyph unicode="&#xea;" glyph-name="ecircumflex" horiz-adv-x="597" d="M435 543T502 468T570 259Q570 235 569 222H183Q196 171 233 143T322 114Q360 114 395 128T458 171L539 89Q498 43 440 19T309 -6Q224 -6 161 28T63 124T28 267Q28 349 63 411T161 508T305
543Q435 543 502 468ZM425 313Q423 366 391 398T306 430Q256 430 223 399T180 313H425ZM479 611H357L300 676L242 611H121L229 759H370L479 611Z" />
<glyph unicode="&#xeb;" glyph-name="edieresis" horiz-adv-x="597" d="M435 543T502 468T570 259Q570 235 569 222H183Q196 171 233 143T322 114Q360 114 395 128T458 171L539 89Q498 43 440 19T309 -6Q224 -6 161 28T63 124T28 267Q28 349 63 411T161 508T305
543Q435 543 502 468ZM425 313Q423 366 391 398T306 430Q256 430 223 399T180 313H425ZM237 757T257 737T277 685Q277 654 257 634T207 614Q176 614 157 634T137 685Q137 717 156 737T207 757Q237 757 257 737ZM424 757T443 737T463 685Q463 654 444 634T393 614Q363
614 343 634T323 685Q323 716 343 736T393 757Q424 757 443 737Z" />
<glyph unicode="&#xec;" glyph-name="igrave" horiz-adv-x="302" d="M74 538H228V0H74V538ZM116 765L220 612L108 602L-20 712L116 765Z" />
<glyph unicode="&#xed;" glyph-name="iacute" horiz-adv-x="302" d="M74 538H228V0H74V538ZM185 765L321 712L185 602L73 612L185 765Z" />
<glyph unicode="&#xee;" glyph-name="icircumflex" horiz-adv-x="302" d="M74 538H228V0H74V538ZM330 612H208L151 677L93 612H-28L80 760H221L330 612Z" />
<glyph unicode="&#xef;" glyph-name="idieresis" horiz-adv-x="302" d="M74 538H228V0H74V538ZM95 758T114 738T134 687Q134 656 115 635T65 614Q34 614 14 635T-6 687Q-6 718 14 738T65 758Q95 758 114 738ZM268 758T288 738T308 687Q308 656 288 635T238 614Q208
614 188 635T168 687Q168 718 187 738T238 758Q268 758 288 738Z" />
<glyph unicode="&#xf0;" glyph-name="eth" horiz-adv-x="600" d="M491 545T531 458T572 279Q572 193 537 128T436 28T283 -7Q206 -7 148 21T58 102T26 225Q26 325 87 385T253 445Q305 445 350 427T420 379Q414 427 384 474T305 563L128 482L96 548L239 614Q179
653 109 682L212 749Q292 716 356 668L496 732L528 666L418 616Q491 545 531 458ZM344 125T376 154T408 231Q408 279 376 308T290 338Q237 338 205 310T173 233Q173 184 205 155T290 125Q344 125 376 154Z" />
<glyph unicode="&#xf1;" glyph-name="ntilde" horiz-adv-x="670" d="M504 544T557 488T611 338V0H457V293Q457 344 429 373T351 403Q294 402 261 364T228 265V0H74V538H228V444Q284 542 414 544Q504 544 557 488ZM526 678T505 639T434 600Q412 600 392 607T345
629Q333 636 321 641T301 646Q286 646 280 636T273 603H182Q182 675 203 714T274 753Q296 753 316 746T363 724Q394 706 407 706Q422 706 428 717T435 749H526Q526 678 505 639Z" />
<glyph unicode="&#xf2;" glyph-name="ograve" horiz-adv-x="633" d="M402 543T467 509T569 413T605 269Q605 188 569 126T468 29T317 -6Q231 -6 166 28T64 125T28 269Q28 351 64 413T165 509T317 543Q402 543 467 509ZM257 415T220 374T182 267Q182 201 219 160T317
119Q376 119 413 160T451 267Q451 333 414 374T317 415Q257 415 220 374ZM282 765L386 612L274 602L146 712L282 765Z" />
<glyph unicode="&#xf3;" glyph-name="oacute" horiz-adv-x="633" d="M402 543T467 509T569 413T605 269Q605 188 569 126T468 29T317 -6Q231 -6 166 28T64 125T28 269Q28 351 64 413T165 509T317 543Q402 543 467 509ZM257 415T220 374T182 267Q182 201 219 160T317
119Q376 119 413 160T451 267Q451 333 414 374T317 415Q257 415 220 374ZM351 765L487 712L351 602L239 612L351 765Z" />
<glyph unicode="&#xf4;" glyph-name="ocircumflex" horiz-adv-x="633" d="M402 543T467 509T569 413T605 269Q605 188 569 126T468 29T317 -6Q231 -6 166 28T64 125T28 269Q28 351 64 413T165 509T317 543Q402 543 467 509ZM257 415T220 374T182 267Q182 201 219
160T317 119Q376 119 413 160T451 267Q451 333 414 374T317 415Q257 415 220 374ZM496 612H374L317 677L259 612H138L246 760H387L496 612Z" />
<glyph unicode="&#xf5;" glyph-name="otilde" horiz-adv-x="633" d="M402 543T467 509T569 413T605 269Q605 188 569 126T468 29T317 -6Q231 -6 166 28T64 125T28 269Q28 351 64 413T165 509T317 543Q402 543 467 509ZM257 415T220 374T182 267Q182 201 219 160T317
119Q376 119 413 160T451 267Q451 333 414 374T317 415Q257 415 220 374ZM492 678T471 639T400 600Q378 600 358 607T311 629Q299 636 287 641T267 646Q252 646 246 636T239 603H148Q148 675 169 714T240 753Q262 753 282 746T329 724Q360 706 373 706Q388 706
394 717T401 749H492Q492 678 471 639Z" />
<glyph unicode="&#xf6;" glyph-name="odieresis" horiz-adv-x="633" d="M402 543T467 509T569 413T605 269Q605 188 569 126T468 29T317 -6Q231 -6 166 28T64 125T28 269Q28 351 64 413T165 509T317 543Q402 543 467 509ZM257 415T220 374T182 267Q182 201 219
160T317 119Q376 119 413 160T451 267Q451 333 414 374T317 415Q257 415 220 374ZM254 758T274 738T294 686Q294 655 274 635T224 615Q193 615 174 635T154 686Q154 718 173 738T224 758Q254 758 274 738ZM441 758T460 738T480 686Q480 655 461 635T410 615Q380
615 360 635T340 686Q340 717 360 737T410 758Q441 758 460 738Z" />
<glyph unicode="&#xf7;" glyph-name="divide" horiz-adv-x="506" d="M284 584T304 564T325 510Q325 477 305 456T252 435Q221 435 201 456T180 510Q180 543 200 563T252 584Q284 584 304 564ZM33 377H473V275H33V377ZM284 227T304 207T325 153Q325 120 305 99T252
78Q221 78 201 99T180 153Q180 186 200 206T252 227Q284 227 304 207Z" />
<glyph unicode="&#xf8;" glyph-name="oslash" horiz-adv-x="633" d="M554 448T579 393T605 269Q605 188 569 126T468 29T317 -6Q245 -6 189 18L116 -89H32L128 52Q80 89 54 144T28 269Q28 351 64 413T165 509T317 543Q389 543 446 519L520 627H604L507 484Q554
448 579 393ZM173 206T203 162L376 416Q351 428 317 428Q252 428 213 384T173 267Q173 206 203 162ZM381 106T421 150T461 267Q461 330 430 372L257 118Q284 106 317 106Q381 106 421 150Z" />
<glyph unicode="&#xf9;" glyph-name="ugrave" horiz-adv-x="660" d="M585 538V0H432V95Q377 -6 252 -6Q163 -6 111 49T58 200V538H212V244Q212 193 239 164T313 135Q368 136 400 174T432 272V538H585ZM295 765L399 612L287 602L159 712L295 765Z" />
<glyph unicode="&#xfa;" glyph-name="uacute" horiz-adv-x="660" d="M585 538V0H432V95Q377 -6 252 -6Q163 -6 111 49T58 200V538H212V244Q212 193 239 164T313 135Q368 136 400 174T432 272V538H585ZM364 765L500 712L364 602L252 612L364 765Z" />
<glyph unicode="&#xfb;" glyph-name="ucircumflex" horiz-adv-x="660" d="M585 538V0H432V95Q377 -6 252 -6Q163 -6 111 49T58 200V538H212V244Q212 193 239 164T313 135Q368 136 400 174T432 272V538H585ZM509 612H387L330 677L272 612H151L259 760H400L509 612Z" />
<glyph unicode="&#xfc;" glyph-name="udieresis" horiz-adv-x="660" d="M585 538V0H432V95Q377 -6 252 -6Q163 -6 111 49T58 200V538H212V244Q212 193 239 164T313 135Q368 136 400 174T432 272V538H585ZM267 758T287 738T307 686Q307 655 287 635T237 615Q206
615 187 635T167 686Q167 718 186 738T237 758Q267 758 287 738ZM454 758T473 738T493 686Q493 655 474 635T423 615Q393 615 373 635T353 686Q353 717 373 737T423 758Q454 758 473 738Z" />
<glyph unicode="&#xfd;" glyph-name="yacute" horiz-adv-x="564" d="M279 -201T138 -201Q95 -201 60 -189T-8 -149L57 -38Q92 -67 127 -67Q176 -67 198 -19L213 11L-10 538H149L290 168L417 538H571L335 -60Q279 -201 138 -201ZM318 765L454 712L318 602L206 612L318
765Z" />
<glyph unicode="&#xfe;" glyph-name="thorn" horiz-adv-x="684" d="M262 501T305 522T403 543Q478 543 535 509T624 411T656 266Q656 185 625 124T538 28T406 -6Q350 -6 306 15T233 77V-194H79V742H233V461Q262 501 305 522ZM308 419T271 378T233 271Q233 204
270 163T367 122Q426 122 463 163T500 271Q500 336 463 377T367 419Q308 419 271 378Z" />
<glyph unicode="&#xff;" glyph-name="ydieresis" horiz-adv-x="564" d="M279 -201T138 -201Q95 -201 60 -189T-8 -149L57 -38Q92 -67 127 -67Q176 -67 198 -19L213 11L-10 538H149L290 168L417 538H571L335 -60Q279 -201 138 -201ZM221 758T241 738T261 686Q261
655 241 635T191 615Q160 615 141 635T121 686Q121 718 140 738T191 758Q221 758 241 738ZM408 758T427 738T447 686Q447 655 428 635T377 615Q347 615 327 635T307 686Q307 717 327 737T377 758Q408 758 427 738Z" />
<glyph unicode="&#x2013;" glyph-name="endash" horiz-adv-x="407" d="M0 357H407V255H0V357Z" />
<glyph unicode="&#x2014;" glyph-name="emdash" horiz-adv-x="662" d="M0 357H662V255H0V357Z" />
<glyph unicode="&#x2018;" glyph-name="quoteleft" horiz-adv-x="232" d="M179 595T179 553Q179 519 157 497T102 475Q71 475 49 496T27 553Q27 569 32 582T47 615L118 742H193L146 616Q179 595 179 553Z" />
<glyph unicode="&#x2019;" glyph-name="quoteright" horiz-adv-x="232" d="M149 742T171 721T193 664Q193 648 188 635T173 602L102 475H27L74 601Q41 622 41 664Q41 698 63 720T118 742Q149 742 171 721Z" />
<glyph unicode="&#x201a;" glyph-name="quotesinglbase" horiz-adv-x="232" d="M149 149T171 128T193 71Q193 55 188 42T173 9L102 -118H27L74 8Q41 29 41 71Q41 105 63 127T118 149Q149 149 171 128Z" />
<glyph unicode="&#x201c;" glyph-name="quotedblleft" horiz-adv-x="405" d="M179 595T179 553Q179 519 157 497T102 475Q71 475 49 496T27 553Q27 569 32 582T47 615L118 742H193L146 616Q179 595 179 553ZM352 595T352 553Q352 519 330 497T275 475Q244 475
222 496T200 553Q200 569 205 582T220 615L291 742H366L319 616Q352 595 352 553Z" />
<glyph unicode="&#x201d;" glyph-name="quotedblright" horiz-adv-x="405" d="M149 742T171 721T193 664Q193 648 188 635T173 602L102 475H27L74 601Q41 622 41 664Q41 698 63 720T118 742Q149 742 171 721ZM322 742T344 721T366 664Q366 648 361 635T346 602L275
475H200L247 601Q214 622 214 664Q214 698 236 720T291 742Q322 742 344 721Z" />
<glyph unicode="&#x201e;" glyph-name="quotedblbase" horiz-adv-x="405" d="M149 149T171 128T193 71Q193 55 188 42T173 9L102 -118H27L74 8Q41 29 41 71Q41 105 63 127T118 149Q149 149 171 128ZM322 149T344 128T366 71Q366 55 361 42T346 9L275 -118H200L247
8Q214 29 214 71Q214 105 236 127T291 149Q322 149 344 128Z" />
<glyph unicode="&#x2022;" glyph-name="bullet" horiz-adv-x="312" d="M206 392T238 359T271 274Q271 221 239 188T155 154Q105 154 73 188T40 274Q40 326 72 359T155 392Q206 392 238 359Z" />
<glyph unicode="&#x2039;" glyph-name="guilsinglleft" horiz-adv-x="279" d="M128 446H254L147 265L254 83H128L9 265L128 446Z" />
<glyph unicode="&#x203a;" glyph-name="guilsinglright" horiz-adv-x="279" d="M151 83H25L132 264L25 446H151L270 264L151 83Z" />
</font>
</defs>
</svg>
