<svg xmlns="http://www.w3.org/2000/svg"><defs><font id="Montserrat" horiz-adv-x="611"><font-face font-family="Montserrat SemiBold" panose-1="0 0 7 0 0 0 0 0 0 0" ascent="968" descent="-251" alphabetic="0"/><glyph glyph-name="space" horiz-adv-x="234"/><glyph unicode="!" glyph-name="exclam" horiz-adv-x="240" d="M56 695h147V518l-27-282H83L56 518v177zm106-545l21-22 22-57q0-35-21-57T128-9Q95-9 73 14T51 71q0 35 22 57t55 22q34 0 55-22z"/><glyph unicode="&quot;" glyph-name="quotedbl" horiz-adv-x="414" d="M60 700h116V434H60v266zm178 0h116V434H238v266z"/><glyph unicode="#" glyph-name="numbersign" horiz-adv-x="732" d="M701 422H562l-18-151h135l-12-111H530L510 0H399l20 160H267L247 0H135l20 160H19l12 111h138l18 151H52l12 111h137l21 167h111l-21-167h152l21 167h112l-21-167h136l-11-111zM432 271l19 151H299l-19-151h152z"/><glyph unicode="$" glyph-name="dollar" horiz-adv-x="637" d="M231 481l34-19 107-41q72-21 118-42t80-63 33-111q0-88-59-143T386-5v-145H271V-5q-71 9-136 37T20 103l63 129q53-48 122-77t126-29q49 0 76 18t28 52q0 27-18 44t-47 29-79 25q-72 20-117 40t-79 61-33 109q0 82 56 136t153 69v136h115V710q60-7 115-26t98-48l-61-131q-54 33-114 52t-104 20q-41 0-65-15t-24-44q0-37 34-56z"/><glyph unicode="%" glyph-name="percent" horiz-adv-x="983" d="M309 703l51-56 51-154q0-98-51-155t-140-57q-89 0-140 57T28 493q0 98 51 154t141 56q89 0 140-56zm-133-86l-24-33-25-91q0-59 24-92t69-34q44 0 68 33t25 93q0 58-25 91t-68 33q-44 0-68-33zm510 83h110L292 0H180l506 700zm167-281l51-56 51-154q0-98-51-155T764-3q-89 0-140 57t-52 155q0 98 51 154t141 56q89 0 140-56zm-133-86l-24-33-25-91q0-59 24-92t69-34q44 0 68 33t25 93q0 58-25 91t-68 33q-44 0-68-33z"/><glyph unicode="&amp;" glyph-name="ampersand" horiz-adv-x="678" d="M593-27L491 73Q399-7 288-7q-66 0-119 26T86 91 55 195q0 66 37 109t106 81q-32 44-46 81t-15 76q0 74 53 119t141 46q56 0 100-19t68-55 25-80q0-65-43-108t-123-83q51-58 121-126 33 53 53 117l98-73q-25-65-66-126 29-29 107-103l-78-78zM258 496l41-60q50 27 77 53t27 63q0 29-19 46t-51 18q-34 0-54-20t-21-54q0-46 41-106zm96-391l56 47q-91 91-151 157-37-23-57-47t-20-56q0-45 32-73t80-28q60 0 116 47z"/><glyph unicode="'" glyph-name="quotesingle" horiz-adv-x="236" d="M60 700h116V434H60v266z"/><glyph unicode="(" glyph-name="parenleft" horiz-adv-x="332" d="M270 653l-32-112-32-232q0-120 32-232t88-201H188Q127-37 95 74T62 309q0 123 32 234t94 199h138q-56-89-88-201z"/><glyph unicode=")" glyph-name="parenright" horiz-adv-x="332" d="M144 742q61-87 93-198t33-235q0-123-32-234t-94-199H6Q62-35 94 77t32 232q0 120-32 232T6 742h138z"/><glyph unicode="*" glyph-name="asterisk" horiz-adv-x="368" d="M145 720h78l-1-98 84 50 39-70-87-47 87-48-39-70-85 50 2-97h-78l2 98-85-50-39 69 86 48-86 47 39 71 85-51-2 98z"/><glyph unicode="+" glyph-name="plus" horiz-adv-x="506" d="M473 377V275H302V106h-98v169H33v102h171v170h98V377h171z"/><glyph unicode="," glyph-name="comma" horiz-adv-x="232" d="M149 149l22-21 22-57q0-16-5-29T173 9l-71-127H27L74 8Q41 29 41 71q0 34 22 56t55 22q31 0 53-21z"/><glyph unicode="-" glyph-name="hyphen" horiz-adv-x="372" d="M57 357h258V255H57v102z"/><glyph unicode="." glyph-name="period" horiz-adv-x="235" d="M151 150l21-22 22-57q0-35-21-57T117-9Q84-9 62 14T40 71q0 35 22 57t55 22q34 0 55-22z"/><glyph unicode="/" glyph-name="slash" horiz-adv-x="346" d="M290 812h130L98-112H-31l321 924z"/><glyph unicode="0" glyph-name="zero" horiz-adv-x="705" d="M501 706l79-92 79-264q0-171-79-263T354-6Q206-6 127 86T47 350q0 172 79 264t228 92q147 0 226-92zM279 585l-35-56-35-179q0-122 35-178t110-57q73 0 108 56t35 179q0 123-35 179t-108 56q-75 0-110-56z"/><glyph unicode="1" glyph-name="one" horiz-adv-x="393" d="M-7 700h299V0H134v566H-7v134z"/><glyph unicode="2" glyph-name="two" horiz-adv-x="597" d="M564 132V0H38v109l259 267q35 35 55 68t21 59q0 33-25 51t-71 19q-45 0-96-23t-99-64L20 604q138 103 280 103 70 0 124-22t84-63 30-95q0-53-35-110t-99-123L243 132h321z"/><glyph unicode="3" glyph-name="three" horiz-adv-x="598" d="M450 399l54-50 55-130q0-66-34-117t-98-80T278-7q-73 0-145 22T10 75l61 117q43-36 93-55t102-19q66 0 102 26t36 74q0 47-36 71t-103 25H152v90l175 169H46l-1 128h479v-95L322 416l36-5q92-12 146-62z"/><glyph unicode="4" glyph-name="four" horiz-adv-x="603" d="M571 285V158h-96V0H330v158H4v111l214 431h150L167 285h163v155h145V285h96z"/><glyph unicode="5" glyph-name="five" horiz-adv-x="623" d="M398 445l61-27 94-75 33-110q0-72-34-126t-98-84T306-7q-68 0-141 23T35 78l61 118q44-36 94-56t99-20q59 0 93 27t34 75q0 46-33 70t-100 25q-37 0-97-1t-92-5v389h460V568H240V445h78q80 0 141-27z"/><glyph unicode="6" glyph-name="six" horiz-adv-x="632" d="M476 560l-38 11-79 12q-88 0-132-55t-42-154q27 41 71 62t103 22q103 0 163-61t61-165q0-73-31-127t-89-83T330-7q-91 0-157 41T72 153 37 338q0 111 38 194t109 129 165 46q56 0 115-15t103-41l-60-112q-31 21-69 32zM270 341l-33-31-32-80q-1-45 29-76t89-32q54 0 85 29t32 82q0 50-30 79t-83 29q-57 0-90-31z"/><glyph unicode="7" glyph-name="seven" horiz-adv-x="582" d="M11 700h549V587L284 0H117l266 568H152l-1-98H11v230z"/><glyph unicode="8" glyph-name="eight" horiz-adv-x="632" d="M420 707l65-50 65-137q0-46-24-84t-67-62q59-23 93-70t34-107q0-62-34-108t-96-71T309-7q-83 0-145 24T67 87 33 194q0 60 36 108t98 72q-46 25-72 65t-27 87q0 83 65 132t175 49q112 0 177-50zM257 598l-28-22-29-64q0-40 28-62t81-23q52 0 80 22t29 63q0 41-28 63t-81 23q-52 0-80-22zm-9-290l-33-25-34-72q0-47 33-73t95-26q61 0 95 25t34 73q0 47-34 72t-95 26q-61 0-94-25z"/><glyph unicode="9" glyph-name="nine" horiz-adv-x="630" d="M140 140l38-11 79-12q87 0 131 55t42 155q-55-85-174-85-102 0-162 62T34 469q0 72 31 126t88 83 133 29q90 0 156-41t101-119 35-184q0-111-38-195T431 39 266-7Q211-7 152 8T50 50l59 112q31-22 69-33zm99 439l-31-29-31-82q0-50 30-79t82-29q57 0 89 31t33 80q0 45-30 76t-88 32q-54 0-85-29z"/><glyph unicode=":" glyph-name="colon" horiz-adv-x="235" d="M151 447l21-22 22-57q0-35-21-57t-56-23q-33 0-55 23t-22 57q0 35 22 57t55 22q34 0 55-22zm0-297l21-22 22-57q0-35-21-57T117-9Q84-9 62 14T40 71q0 35 22 57t55 22q34 0 55-22z"/><glyph unicode=";" glyph-name="semicolon" horiz-adv-x="233" d="M151 447l21-22 22-57q0-35-21-57t-56-23q-33 0-55 23t-22 57q0 35 22 57t55 22q34 0 55-22zm-2-298l22-21 22-57q0-16-5-29T173 9l-71-127H27L74 8Q41 29 41 71q0 34 22 56t55 22q31 0 53-21z"/><glyph unicode="&lt;" glyph-name="less" horiz-adv-x="506" d="M473 575V461L134 325l339-137V74L33 260v129l440 186z"/><glyph unicode="=" glyph-name="equal" horiz-adv-x="506" d="M33 484h440V382H33v102zm0-214h440V168H33v102z"/><glyph unicode="&gt;" glyph-name="greater" horiz-adv-x="506" d="M33 81v114l339 136L33 468v114l440-186V267L33 81z"/><glyph unicode="?" glyph-name="question" horiz-adv-x="462" d="M23 585l59 58 161 58q98 0 154-45t57-128q0-38-13-67t-31-49-50-47q-41-36-60-63t-20-66H165q0 40 11 69t28 49 44 46q32 29 47 50t15 54q0 35-21 52t-59 18q-86 0-89-94l-119 1q1 104 60 162zm231-435l21-22 22-57q0-35-21-57T220-9q-33 0-55 23t-22 57q0 35 22 57t55 22q34 0 55-22z"/><glyph unicode="@" glyph-name="at" horiz-adv-x="936" d="M688 105h41q22 0 42 21t32 60 12 85q0 96-41 174T655 568t-181 45q-96 0-177-46T169 441t-48-174q0-93 45-168T288-18t173-43q47 0 98 15t92 45l45-77q-43-32-109-52t-126-20q-122 0-221 54T84 54 27 267q0 120 59 219t162 156 226 58q123 0 222-55t155-152 57-219q0-74-24-130t-68-86-99-31q-47 0-77 19t-40 59l-2 15q-28-41-69-61t-89-21q-58 0-109 29t-82 83-31 120q0 65 26 119t74 85 110 32q37 0 68-13t50-29 25-25v56h117V155q0-50 41-50zM405 397l-29-35-30-87q0-54 30-92t77-38q50 0 80 37t30 92q0 52-30 87t-82 36q-46 0-75-35z"/><glyph unicode="A" glyph-name="A" horiz-adv-x="759" d="M594 0l-55 136H215L160 0H-3l304 700h163L763 0H594zM267 263h221L378 535 267 263z"/><glyph unicode="B" glyph-name="B" horiz-adv-x="712" d="M515 700l67-47 67-128q0-56-32-97t-89-57q68-13 107-60t39-117q0-90-71-142T410 0H77v700h322q116 0 183-47zm-79-282l25 20 26 58q0 36-25 56t-71 19H235V418h156q45 0 70 20zm11-289l32 22 32 63q0 38-32 60t-88 21H235V129h156q56 0 88 22z"/><glyph unicode="C" glyph-name="C" horiz-adv-x="694" d="M548 524l-48 24-98 25q-59 0-108-29t-77-79-28-111q0-61 28-111t77-80 108-30q47 0 95 22t87 61l93-101q-56-58-131-92T394-11q-103 0-187 47T75 167 27 352q0 101 49 183t134 129 190 47q76 0 150-31t126-86l-92-113q-36 43-84 67z"/><glyph unicode="D" glyph-name="D" horiz-adv-x="769" d="M481 700l84-44 130-124 47-182q0-102-47-181T562 45 368 0H77v700h297q107 0 191-44zm-45-567l46 27 73 77 26 112q0 63-27 113t-75 77-108 28H235V133h143q58 0 104 27z"/><glyph unicode="E" glyph-name="E" horiz-adv-x="668" d="M77 700h533V569H235V417h337V286H235V131h386V0H77v700z"/><glyph unicode="F" glyph-name="F" horiz-adv-x="595" d="M77 700h503l-1-131H235V397h316V265H235V0H77v700z"/><glyph unicode="G" glyph-name="G" horiz-adv-x="745" d="M547 353h137V81q-56-41-134-66T400-11q-105 0-190 47T76 166 27 351q0 101 50 183t137 130 195 47q78 0 152-28t129-76l-89-113q-39 37-90 58t-102 21q-61 0-111-29t-80-80-29-113q0-62 29-113t80-81 112-30q31 0 67 10t70 29v187z"/><glyph unicode="H" glyph-name="H" horiz-adv-x="787" d="M77 700h158V408h317v292h158V0H552v276H235V0H77v700z"/><glyph unicode="I" glyph-name="I" horiz-adv-x="313" d="M77 700h158V0H77v700z"/><glyph unicode="J" glyph-name="J" horiz-adv-x="524" d="M460 115l-62-61L225-7Q89-7-4 102l73 112q36-38 75-58t73-20q40 0 62 24t22 68v338H60v134h400V224q0-109-62-170z"/><glyph unicode="K" glyph-name="K" horiz-adv-x="737" d="M726 0H537L335 287 235 176V0H77v700h158V374l290 326h184L445 409 726 0z"/><glyph unicode="L" glyph-name="L" horiz-adv-x="552" d="M77 700h158V138h300V0H77v700z"/><glyph unicode="M" glyph-name="M" horiz-adv-x="940" d="M77 700h176l218-430 216 430h175V0H720v473L521 71H419L219 473V0H77v700z"/><glyph unicode="N" glyph-name="N" horiz-adv-x="788" d="M561 700h150V0H567L228 450V0H77v700h144l340-452v452z"/><glyph unicode="O" glyph-name="O" horiz-adv-x="806" d="M508 711l86-47 135-129 50-184q0-101-49-184T594 37 403-11q-105 0-191 47T77 166 27 351q0 101 49 183t135 130 192 47q105 0 191-47zM347 573l-50-29-79-81-29-112q0-62 29-113t79-81 108-30q58 0 106 29t77 81 29 114q0 61-28 112t-77 80-107 30q-58 0-108-29z"/><glyph unicode="P" glyph-name="P" horiz-adv-x="678" d="M508 700l73-63 73-180q0-122-73-189t-207-68H235V0H77v700h297q134 0 207-63zm-75-368l35 30 36 90q0 58-35 87t-103 30H235V332h131q67 0 102 30z"/><glyph unicode="Q" glyph-name="Q" horiz-adv-x="812" d="M816-85q-40-36-93-56t-105-21q-70 0-127 39T395-11Q291-9 207 39T75 169 27 351q0 101 49 183t135 130 192 47q105 0 191-47t135-129 50-184q0-116-64-207T543 13q45-50 93-50 25 0 57 14t66 41l57-103zM189 289l29-51 79-81 108-30q58 0 106 29t77 81 29 114q0 61-28 112t-77 80-107 30q-58 0-108-29t-79-81-29-112q0-62 29-113z"/><glyph unicode="R" glyph-name="R" horiz-adv-x="724" d="M507 0L396 200H235V0H77v700h304q137 0 212-63t75-180q0-81-33-138t-98-88L686 0H507zM235 332h146q66 0 101 30t36 90q0 58-35 87t-102 30H235V332z"/><glyph unicode="S" glyph-name="S" horiz-adv-x="637" d="M484 538l-60 19-104 20q-41 0-65-15t-24-44q0-37 34-56t107-41q72-21 118-42t80-63 33-111q0-67-35-115t-98-74T329-9q-85 0-167 30T20 103l63 129q53-48 122-77t126-29q49 0 76 18t28 52q0 27-18 44t-47 29-79 25q-72 20-117 40t-79 61-33 109q0 63 34 110t95 73 142 26q72 0 142-21t124-56l-61-131q-54 33-114 52z"/><glyph unicode="T" glyph-name="T" horiz-adv-x="601" d="M8 700h585V566H379V0H221v566H8v134z"/><glyph unicode="U" glyph-name="U" horiz-adv-x="753" d="M223 214l42-43 114-44q69 0 110 43t41 119v411h158V289q0-92-37-159T543 26 378-11q-95 0-166 36T103 129 65 289v411h158V289q0-75 42-118z"/><glyph unicode="V" glyph-name="V" horiz-adv-x="716" d="M0 700h170l191-528 192 528h163L438 0H275L0 700z"/><glyph unicode="W" glyph-name="W" horiz-adv-x="1094" d="M931 700h163L857 0H694L547 505 398 0H236L0 700h170l152-534 151 534h155l153-534 150 534z"/><glyph unicode="X" glyph-name="X" horiz-adv-x="721" d="M25 700h184l146-214 147 214h187L456 365 709 0H520L355 233 193 0H8l251 358L25 700z"/><glyph unicode="Y" glyph-name="Y" horiz-adv-x="666" d="M669 700L414 226V0H256v222L-3 700h159l179-314 175 314h159z"/><glyph unicode="Z" glyph-name="Z" horiz-adv-x="672" d="M44 700h591V594L244 132h397L640 0H31v107l392 461H44v132z"/><glyph unicode="[" glyph-name="bracketleft" horiz-adv-x="347" d="M72 742h259V623H209V-5h122v-119H72v866z"/><glyph unicode="\" glyph-name="backslash" horiz-adv-x="346" d="M56 812l321-924H248L-74 812H56z"/><glyph unicode="]" glyph-name="bracketright" horiz-adv-x="347" d="M275 742v-866H16V-5h122v628H16v119h259z"/><glyph unicode="^" glyph-name="asciicircum" horiz-adv-x="562" d="M531 135H417L281 435 144 135H30l186 390h129l186-390z"/><glyph unicode="_" glyph-name="underscore" horiz-adv-x="578" d="M0-116h577v-88H0v88z"/><glyph unicode="`" glyph-name="grave" horiz-adv-x="346" d="M184 765l104-153-112-10L48 712l136 53z"/><glyph unicode="a" glyph-name="a" horiz-adv-x="596" d="M386 0v63q-27-34-70-52T217-7Q132-7 82 39T32 161q0 76 53 118t152 44h148v10q0 43-28 66t-84 24q-75 0-160-47L65 482q64 32 120 47t123 15q108 0 167-51t61-142l1-351H386zm-78 103l35 23 42 58v48H264q-45 0-66-14t-22-47q0-31 22-49t62-19q48 0 83 23z"/><glyph unicode="b" glyph-name="b" horiz-adv-x="684" d="M478 543l57-34 89-98 32-145q0-81-31-142t-87-96T406-6q-56 0-99 21t-74 63V0H79v742h154V459q29 41 72 62t98 22q75 0 132-34zm-52-421l37 41 37 108q0 65-37 106t-96 42q-59 0-96-41t-38-107q0-67 37-108t97-41q59 0 96 41z"/><glyph unicode="c" glyph-name="c" horiz-adv-x="563" d="M387 412h-74q-58 0-94-39t-37-105q0-65 36-105t92-41q84 0 125 63l106-72q-34-57-95-88T302-6q-81 0-143 34t-96 96-35 143q0 82 34 144t97 97 145 35q77 0 137-29t96-84l-104-75q-46 57-120 57z"/><glyph unicode="d" glyph-name="d" horiz-adv-x="685" d="M605 742V0H452v79q-29-42-72-63T282-6q-76 0-133 34t-89 98-32 145q0 81 31 143t88 96 131 34q114 0 174-85v283h153zM377 118l37 41 38 108q0 66-37 107t-97 42q-60 0-97-41t-39-108q1-66 38-107t98-42q59 0 96 41z"/><glyph unicode="e" glyph-name="e" horiz-adv-x="597" d="M435 543l67-75 68-209q0-24-1-37H183q13-51 50-79t89-29q38 0 73 14t63 43l81-82q-41-46-99-70T309-6q-85 0-148 34t-98 96-35 143q0 82 35 144t98 97 144 35q130 0 197-75zm-10-230q-2 53-34 85t-85 32q-50 0-83-31t-43-86h245z"/><glyph unicode="f" glyph-name="f" horiz-adv-x="380" d="M292 622l-18-16-18-47v-45h127V407H256V0H103v407H31v107h72v51q0 58 26 99t72 63 100 22q52 0 106-22l-23-120q-15 6-32 10t-32 5q-28 0-46-16z"/><glyph unicode="g" glyph-name="g" horiz-adv-x="645" d="M578 538V50q0-76-36-132t-101-87-150-31q-66 0-125 19T57-129l57 108q76-54 167-54 66 0 105 32t39 88v61q-27-38-68-58t-94-20q-69 0-122 32t-83 92-30 136q0 76 29 133t83 90 123 32q52 0 93-20t69-58v73h153zM355 145l35 38 35 101q0 62-35 101t-91 39q-56 0-91-39t-36-101q1-62 35-100t92-39q56 0 91 38z"/><glyph unicode="h" glyph-name="h" horiz-adv-x="675" d="M510 544l53-56 54-150V0H463v293q0 51-28 80t-78 30q-57-1-90-39t-34-99V0H79v742h154V443q56 99 186 101 91 0 144-56z"/><glyph unicode="i" glyph-name="i" horiz-adv-x="302" d="M74 538h154V0H74v538zm113 239l23-24 24-62q0-38-23-62t-61-24q-36 0-59 24t-24 62q0 38 23 62t60 24q37 0 60-24z"/><glyph unicode="j" glyph-name="j" horiz-adv-x="298" d="M-7-74l20-1q31-1 47 19T76 2v536h153V-22q0-83-48-130T49-200q-62 0-111 21l32 112q23-7 43-8zm194 851l23-24 24-62q0-38-23-62t-61-24q-36 0-59 24t-24 62q0 38 23 62t60 24q37 0 60-24z"/><glyph unicode="k" glyph-name="k" horiz-adv-x="619" d="M432 0L302 219l-69-73V0H79v742h154V334l197 203h175L408 330 614 0H432z"/><glyph unicode="l" glyph-name="l" horiz-adv-x="313" d="M79 742h154V0H79v742z"/><glyph unicode="m" glyph-name="m" horiz-adv-x="1039" d="M875 544l52-55 53-151V0H827v293q0 52-28 81t-76 29q-55-1-87-39t-32-98V0H451v293q0 51-27 80t-76 30q-55-1-87-39t-33-98V0H74v538h154v-93q56 97 182 99 68 0 115-32t67-92q26 61 75 92t119 32q89 0 141-55z"/><glyph unicode="n" glyph-name="n" horiz-adv-x="670" d="M504 544l53-56 54-150V0H457v293q0 51-28 80t-78 30q-57-1-90-39t-33-99V0H74v538h154v-94q56 98 186 100 90 0 143-56z"/><glyph unicode="o" glyph-name="o" horiz-adv-x="633" d="M402 543l65-34 102-96 36-144q0-81-36-143T468 29 317-6q-86 0-151 34T64 125 28 269q0 82 36 144t101 96 152 34q85 0 150-34zM257 415l-37-41-38-107q0-66 37-107t98-41q59 0 96 41t38 107q0 66-37 107t-97 41q-60 0-97-41z"/><glyph unicode="p" glyph-name="p" horiz-adv-x="684" d="M478 543l57-34 89-98 32-145q0-81-31-142t-87-96T406-6q-56 0-99 21t-74 63v-272H79v732h154v-79q29 41 72 62t98 22q75 0 132-34zm-52-421l37 41 37 108q0 65-37 106t-96 42q-59 0-96-41t-38-107q0-67 37-108t97-41q59 0 96 41z"/><glyph unicode="q" glyph-name="q" horiz-adv-x="685" d="M605 538v-732H452V79q-29-42-72-63T282-6q-76 0-133 34t-89 98-32 145q0 81 31 143t88 96 131 34q114 0 174-85v79h153zM377 118l37 41 38 108q0 66-37 107t-97 42q-60 0-97-41t-39-108q1-66 38-107t98-42q59 0 96 41z"/><glyph unicode="r" glyph-name="r" horiz-adv-x="416" d="M256 491l45 26 105 27V399q-8 1-24 1-71 0-112-38t-42-103V0H74v538h154v-97q28 50 73 76z"/><glyph unicode="s" glyph-name="s" horiz-adv-x="499" d="M369 405l-43 13-77 14q-28 0-45-10t-17-30q0-22 23-34t75-27q57-17 94-33t64-49 27-86q0-80-61-124T251-6q-66 0-127 19T18 69l50 104q41-32 91-49t96-18q31 0 49 10t19 32q0 23-23 36t-76 28q-55 16-91 32t-63 48-26 85q0 80 60 124t152 44q55 0 110-15t100-45l-53-105q-44 25-87 38z"/><glyph unicode="t" glyph-name="t" horiz-adv-x="426" d="M407 30q-30-18-66-27T267-7q-75 0-122 43T98 159v249H23v106h75v148h153V514h146V407H251V185q0-62 49-62 34 0 75 20l32-113z"/><glyph unicode="u" glyph-name="u" horiz-adv-x="660" d="M585 538V0H432v95Q377-6 252-6q-89 0-141 55T58 200v338h154V244q0-51 27-80t74-29q55 1 87 39t32 98v266h153z"/><glyph unicode="v" glyph-name="v" horiz-adv-x="556" d="M-3 537l159 1 127-392 126 392h153L359 0H201L-3 537z"/><glyph unicode="w" glyph-name="w" horiz-adv-x="923" d="M-3 537l157 1 120-385 116 385h151l118-385 118 385h152L733 0H579L463 355 348 0H194L-3 537z"/><glyph unicode="x" glyph-name="x" horiz-adv-x="589" d="M20 538h176l99-163 105 163h168L397 276 580 0H403L295 176 177 0H7l186 275L20 538z"/><glyph unicode="y" glyph-name="y" horiz-adv-x="564" d="M279-201H138q-43 0-78 12t-68 40L57-38q35-29 70-29 49 0 71 48l15 30-223 527h159l141-370 127 370h154L335-60q-56-141-197-141z"/><glyph unicode="z" glyph-name="z" horiz-adv-x="548" d="M48 537h459v-97L230 121h286V-1L38 0v97l277 319-267 1v120z"/><glyph unicode="{" glyph-name="braceleft" horiz-adv-x="356" d="M245 389l-10-21-30-32-58-27q38-15 57-27t30-33 11-58V59q0-37 19-51t71-15v-119h-59q-63 0-99 13t-53 43-17 81v190q0 25-9 36t-30 11H32v122h36q21 0 30 10t9 36v190q0 51 16 80t53 43 100 14h59V624q-52 0-71-14t-19-52V426q0-37-10-58z"/><glyph unicode="|" glyph-name="bar" horiz-adv-x="289" d="M87 805h115v-916H87v916z"/><glyph unicode="}" glyph-name="braceright" horiz-adv-x="356" d="M324 370V248h-36q-21 0-30-11t-9-36V11q0-51-16-80t-53-43-100-14H21V-7Q73-7 92 7t19 52v132q0 37 10 58t30 33 58 27q-38 15-57 26t-30 33-11 58v132q0 37-19 51t-71 15v119h59q63 0 99-13t53-43 17-81V416q0-25 9-35t30-11h36z"/><glyph unicode="~" glyph-name="asciitilde" horiz-adv-x="506" d="M447 321l-26-40-81-41q-26 0-45 8t-49 24q-17 10-27 15t-21 5q-34 0-34-47H60q0 82 26 122t81 41q25 0 46-8t47-25q16-10 27-15t22-5q34 0 34 48h104q0-82-26-122z"/><glyph glyph-name="uni00A0" horiz-adv-x="234"/><glyph unicode="¡" glyph-name="exclamdown" horiz-adv-x="240" d="M97 387l-21 22-22 57q0 35 21 57t56 23q33 0 55-23t22-57q0-35-22-57t-55-22q-34 0-55 22zm106-545H56V19l27 282h93l27-282v-177z"/><glyph unicode="¢" glyph-name="cent" horiz-adv-x="600" d="M514 68l-45-29L365-1v-149H250V-2Q149 14 89 86T28 267q0 109 60 182t162 90v156h115V538q55-10 99-37t73-71l-104-75q-46 57-120 57-58 0-94-39t-37-105q0-65 36-105t92-41q84 0 125 63l106-72q-27-45-72-74z"/><glyph unicode="£" glyph-name="sterling" horiz-adv-x="557" d="M268 125h265V0H31v125h78v189H31v64h78v98q0 110 60 170t170 61q60 0 113-22t95-65l-60-120q-66 69-131 69-43 0-65-24t-23-72v-95h170v-64H268V125z"/><glyph unicode="¤" glyph-name="currency" horiz-adv-x="705" d="M616 247l-40-64L677 82 590-8 485 97q-62-35-133-35T219 97L114-8 28 82l101 102q-40 64-40 137 0 70 37 133l-98 99 86 90 101-101q62 39 137 39t138-38l100 100 87-90-99-99q38-62 38-133 0-74-40-138zm-225-60l33 18 52 49 20 67q0 36-19 67t-53 49-72 19q-39 0-71-18t-52-49-19-68q0-36 19-67t51-49 72-18q39 0 72 18z"/><glyph unicode="¥" glyph-name="yen" horiz-adv-x="672" d="M672 700L466 317h145v-64H431l-14-27v-27h194v-64H417V0H259v135H65v64h194v23l-17 31H65v64h142L0 700h158l180-314 175 314h159z"/><glyph unicode="¦" glyph-name="brokenbar" horiz-adv-x="289" d="M87 805h115V461H87v344zm0-573h115v-343H87v343z"/><glyph unicode="§" glyph-name="section" horiz-adv-x="530" d="M341 589h-65q-34 0-54-12t-21-32q0-25 27-40t86-33q59-18 96-35t65-48 28-82q0-43-28-79t-74-53q38-20 55-43t17-62q0-45-27-81t-76-56-115-20q-64 0-126 20T18-10l44 98q47-33 95-50t94-18q37 0 59 13t22 33q0 24-26 38t-83 33q-59 19-96 36t-65 48-27 81q0 46 29 79t82 52q-46 22-64 46t-18 59q0 45 26 80t74 56 111 20q111 0 211-59l-47-98q-98 52-163 52zM214 359l-21-12-21-35q0-27 31-44t78-18q39 0 60 13t22 35q0 27-31 44t-79 17q-39 0-60-12z"/><glyph unicode="¨" glyph-name="dieresis" horiz-adv-x="403" d="M149 758l20-20 20-52q0-31-20-51t-50-20q-31 0-50 20t-20 51q0 32 19 52t51 20q30 0 50-20zm187 0l19-20 20-52q0-31-19-51t-51-20q-30 0-50 20t-20 51q0 31 20 51t50 21q31 0 50-20z"/><glyph unicode="©" glyph-name="copyright" horiz-adv-x="732" d="M459 689l77-45 123-124 45-170q0-91-45-169T536 56 364 9q-93 0-170 46T72 179 27 348q0 91 45 169t122 125 172 47q93 0 170-45zm-167-75l-61-36-96-97-36-133q0-72 35-132t95-96 135-36q74 0 135 36t97 97 36 133q0 72-35 132t-96 96-135 36q-74 0-135-36zm150-186l-23 11-46 12q-43 0-72-29t-29-72q0-43 29-72t72-30q22 0 45 10t42 29l44-48q-26-27-62-43t-73-16q-49 0-88 22t-63 61-23 86q0 47 23 85t64 60 90 22q36 0 71-14t61-41l-44-53q-18 20-41 31z"/><glyph unicode="ª" glyph-name="ordfeminine" horiz-adv-x="390" d="M245 458v44q-35-49-108-49-52 0-82 27t-30 73q0 45 33 69t96 25h90v7q0 24-17 36t-50 13q-47 0-106-25l-25 71q84 34 156 34 69 0 108-30t38-86l1-209H245zm-24 64l23 38v36h-68q-51 0-51-35 0-18 13-28t35-11q48 0 71 38z"/><glyph unicode="«" glyph-name="guillemotleft" horiz-adv-x="487" d="M128 446h126L147 265 254 83H128L9 265l119 181zm208 0h126L355 265 462 83H336L217 265l119 181z"/><glyph unicode="¬" glyph-name="logicalnot" horiz-adv-x="573" d="M505 421V139H394v180H33v102h472z"/><glyph unicode="­" glyph-name="uni00AD" horiz-adv-x="372" d="M57 357h258V255H57v102z"/><glyph unicode="®" glyph-name="registered" horiz-adv-x="732" d="M459 689l77-45 123-124 45-170q0-91-45-169T536 56 364 9q-93 0-170 46T72 179 27 348q0 91 45 169t122 125 172 47q93 0 170-45zM438 84l61 36 97 97 36 133q0 72-35 132t-96 96-135 36q-74 0-135-36t-96-97-36-133q0-72 35-132t95-96 135-36q74 0 135 36zm71 288l-16-26-46-41 71-108h-83l-52 94h-74v-94h-72v325h138q64 0 99-29t35-83q0-38-16-64zm-200-23h66q31 0 48 15t17 43q0 28-17 42t-48 15h-66V349z"/><glyph unicode="¯" glyph-name="overscore" horiz-adv-x="346" d="M24 735h303v-94H24v94z"/><glyph unicode="°" glyph-name="degree" horiz-adv-x="365" d="M249 815l35-34 35-83q0-48-35-82t-84-35q-48 0-82 34t-35 83q0 48 34 82t83 35q49 0 84-34zm-72-63l-16-16-17-38q0-22 16-38t40-16q24 0 41 16t17 38q0 22-17 38t-41 16q-23 0-39-16z"/><glyph unicode="±" glyph-name="plusminus" horiz-adv-x="506" d="M302 448h171v-99H302V186h-98v163H33v99h171v164h98V448zM33 6v102h440V6H33z"/><glyph unicode="²" glyph-name="uni00B2" horiz-adv-x="372" d="M195 605l12 19 12 32q0 17-13 26t-37 10q-26 0-57-14t-61-39L9 718q89 63 177 63 65 0 106-30t41-80q0-61-82-138l-91-89h186v-84H22v70l155 157q18 18 30 37z"/><glyph unicode="³" glyph-name="uni00B3" horiz-adv-x="364" d="M280 596l29-29 30-77q0-60-45-97t-121-38q-45 0-88 14t-74 37l45 83q48-52 108-52 32 0 50 14t18 39q0 24-17 37t-51 13H95v58l100 97H33v79h286v-61L210 608l21-4q49-8 78-37z"/><glyph unicode="´" glyph-name="acute" horiz-adv-x="350" d="M164 765l136-53-136-110-112 10 112 153z"/><glyph unicode="µ" glyph-name="uni00B5" horiz-adv-x="681" d="M606 538V0H453v95Q398-6 273-6q-20 0-40 3v-191H79v732h154V244q0-51 27-80t74-29q55 1 87 39t32 98v266h153z"/><glyph unicode="¶" glyph-name="paragraph" horiz-adv-x="639" d="M193 333q-73 0-117 31t-62 77-18 92q0 56 24 103t78 77 135 29h328v-849H446v758H336v-758H221v440h-28z"/><glyph unicode="·" glyph-name="middot" horiz-adv-x="232" d="M151 375l23-24 24-62q0-38-23-62t-61-24q-36 0-59 24t-24 62q0 38 23 62t60 24q37 0 60-24z"/><glyph unicode="¸" glyph-name="cedilla" horiz-adv-x="311" d="M226 0l-20-54q42-9 62-30t20-51q0-46-35-70t-88-24q-51 0-105 21l26 75q27-10 54-10 18 0 29 6t12 16q0 12-14 18t-38 7h-27L136 9l90-9z"/><glyph unicode="¹" glyph-name="uni00B9" horiz-adv-x="253" d="M3 776h190V360H83v329H3v87z"/><glyph unicode="º" glyph-name="ordmasculine" horiz-adv-x="411" d="M287 783l50-45 50-119q0-74-50-119t-132-45q-82 0-131 45T24 619q0 74 49 119t132 45q82 0 132-45zm-115-85l-21-22-21-59q0-36 21-58t54-22q34 0 54 22t21 58q0 37-20 59t-55 22q-33 0-54-22z"/><glyph unicode="»" glyph-name="guillemotright" horiz-adv-x="495" d="M151 83H25l107 181L25 446h126l119-182L151 83zm208 0H233l107 181-107 182h126l119-182L359 83z"/><glyph unicode="¼" glyph-name="onequarter" horiz-adv-x="812" d="M3 700h190V284H83v329H3v87zm564 0h110L173 0H61l506 700zm14-284h104L554 169h95v92h102v-92h59V90h-59V0H649v90H444v73l137 253z"/><glyph unicode="½" glyph-name="onehalf" horiz-adv-x="849" d="M3 700h190V284H83v329H3v87zm564 0h110L173 0H61l506 700zm105-455l12 19 12 32q0 17-13 26t-37 10q-26 0-57-14t-61-39l-42 79q89 63 177 63 65 0 106-30t41-80q0-61-82-138l-91-89h186V0H499v70l155 157q18 18 30 37z"/><glyph unicode="¾" glyph-name="threequarters" horiz-adv-x="892" d="M280 521l29-29 30-77q0-60-45-97t-121-38q-45 0-88 14t-74 37l45 83q48-52 108-52 32 0 50 14t18 39q0 24-17 37t-51 13H95v58l100 97H33v79h286v-61L210 533l21-4q49-8 78-37zm367 179h110L253 0H141l506 700zm14-284h104L634 169h95v92h102v-92h59V90h-59V0H729v90H524v73l137 253z"/><glyph unicode="¿" glyph-name="questiondown" horiz-adv-x="462" d="M208 387l-21 22-22 57q0 35 21 57t56 23q33 0 55-23t22-57q0-35-22-57t-55-22q-34 0-55 22zM439-48l-59-58-161-58q-98 0-154 45T8 9q0 38 13 67t31 49 50 47q41 36 60 63t20 66h115q0-40-11-69t-28-49-44-46q-32-29-47-50t-15-54q0-35 21-52t59-18q86 0 89 94l119-1q-1-104-60-162z"/><glyph unicode="À" glyph-name="Agrave" horiz-adv-x="759" d="M594 0l-55 136H215L160 0H-3l304 700h163L763 0H594zM267 263h221L378 535 267 263zm78 653l104-153-112-10-128 110 136 53z"/><glyph unicode="Á" glyph-name="Aacute" horiz-adv-x="759" d="M594 0l-55 136H215L160 0H-3l304 700h163L763 0H594zM267 263h221L378 535 267 263zm148 653l136-53-136-110-112 10 112 153z"/><glyph unicode="Â" glyph-name="Acircumflex" horiz-adv-x="759" d="M594 0l-55 136H215L160 0H-3l304 700h163L763 0H594zM267 263h221L378 535 267 263zm292 496H437l-57 65-58-65H201l108 148h141l109-148z"/><glyph unicode="Ã" glyph-name="Atilde" horiz-adv-x="759" d="M594 0l-55 136H215L160 0H-3l304 700h163L763 0H594zM267 263h221L378 535 267 263zm288 570l-21-39-71-39q-22 0-42 7t-47 22q-12 7-24 12t-20 5q-15 0-21-10t-7-33h-91q0 72 21 111t71 39q22 0 42-7t47-22q31-18 44-18 15 0 21 11t7 32h91q0-71-21-110z"/><glyph unicode="Ä" glyph-name="Adieresis" horiz-adv-x="759" d="M594 0l-55 136H215L160 0H-3l304 700h163L763 0H594zM267 263h221L378 535 267 263zm51 637l19-20 20-52q0-31-19-51t-51-21q-31 0-50 20t-20 52q0 32 19 52t51 20q31 0 50-20zm186 0l20-20 20-52q0-31-20-51t-50-21q-31 0-51 20t-20 52q0 31 20 51t51 21q30 0 50-20z"/><glyph unicode="Å" glyph-name="Aring" horiz-adv-x="759" d="M594 0l-55 136H215L160 0H-3l304 700h163L763 0H594zM267 263h221L378 535 267 263zm161 709l34-34 34-81q0-48-34-82t-82-34q-48 0-82 34t-34 82q0 47 34 81t82 34q48 0 82-34zm-68-70l-13-13-14-32q0-19 13-32t34-14q20 0 33 13t14 33q0 19-13 32t-34 13q-20 0-33-13z"/><glyph unicode="Æ" glyph-name="AE" horiz-adv-x="1085" d="M652 132h386V0H495v154H245L162 0H-3l401 700h629V569H652V417h338V286H652V132zM310 274h185v300h-22L310 274z"/><glyph unicode="Ç" glyph-name="Ccedilla" horiz-adv-x="694" d="M628 64l-65-32L430-9l-17-45q42-9 62-30t20-51q0-46-35-70t-88-24q-51 0-105 21l26 75q27-10 54-10 18 0 29 6t12 16q0 12-14 18t-38 7h-27l29 89Q248 5 178 55T67 182 27 352q0 101 49 183t134 129 190 47q76 0 150-31t126-86l-92-113q-36 43-84 67t-98 25q-59 0-108-29t-77-79-28-111q0-61 28-111t77-80 108-30q47 0 95 22t87 61l93-101q-49-51-114-83z"/><glyph unicode="È" glyph-name="Egrave" horiz-adv-x="668" d="M77 700h533V569H235V417h337V286H235V131h386V0H77v700zm238 216l104-153-112-10-128 110 136 53z"/><glyph unicode="É" glyph-name="Eacute" horiz-adv-x="668" d="M77 700h533V569H235V417h337V286H235V131h386V0H77v700zm308 216l136-53-136-110-112 10 112 153z"/><glyph unicode="Ê" glyph-name="Ecircumflex" horiz-adv-x="668" d="M77 700h533V569H235V417h337V286H235V131h386V0H77v700zm452 59H407l-57 65-58-65H171l108 148h141l109-148z"/><glyph unicode="Ë" glyph-name="Edieresis" horiz-adv-x="668" d="M77 700h533V569H235V417h337V286H235V131h386V0H77v700zm211 200l19-20 20-52q0-31-19-51t-51-21q-31 0-50 20t-20 52q0 32 19 52t51 20q31 0 50-20zm186 0l20-20 20-52q0-31-20-51t-50-21q-31 0-51 20t-20 52q0 31 20 51t51 21q30 0 50-20z"/><glyph unicode="Ì" glyph-name="Igrave" horiz-adv-x="313" d="M77 700h158V0H77v700zm44 216l104-153-112-10-128 110 136 53z"/><glyph unicode="Í" glyph-name="Iacute" horiz-adv-x="313" d="M77 700h158V0H77v700zm114 216l136-53-136-110-112 10 112 153z"/><glyph unicode="Î" glyph-name="Icircumflex" horiz-adv-x="313" d="M77 700h158V0H77v700zm258 59H213l-57 65-58-65H-23L85 907h141l109-148z"/><glyph unicode="Ï" glyph-name="Idieresis" horiz-adv-x="313" d="M77 700h158V0H77v700zm17 200l19-20 20-52q0-31-19-51t-51-21q-31 0-50 20t-20 52q0 32 19 52t51 20q31 0 50-20zm186 0l20-20 20-52q0-31-20-51t-50-21q-31 0-51 20t-20 52q0 31 20 51t51 21q30 0 50-20z"/><glyph unicode="Ð" glyph-name="Eth" horiz-adv-x="769" d="M481 700l84-44 130-124 47-182q0-102-47-181T562 45 368 0H77v311H9v79h68v310h296q108 0 192-44zm-46-567l46 27 73 77 27 112q0 63-27 113t-76 77-108 28H235V390h175v-79H235V133h142q58 0 104 27z"/><glyph unicode="Ñ" glyph-name="Ntilde" horiz-adv-x="788" d="M561 700h150V0H567L228 450V0H77v700h144l340-452v452zm15 133l-21-39-71-39q-22 0-42 7t-47 22q-12 7-24 12t-20 5q-15 0-21-10t-7-33h-91q0 72 21 111t71 39q22 0 42-7t47-22q31-18 44-18 15 0 21 11t7 32h91q0-71-21-110z"/><glyph unicode="Ò" glyph-name="Ograve" horiz-adv-x="806" d="M508 711l86-47 135-129 50-184q0-101-49-184T594 37 403-11q-105 0-191 47T77 166 27 351q0 101 49 183t135 130 192 47q105 0 191-47zM347 573l-50-29-79-81-29-112q0-62 29-113t79-81 108-30q58 0 106 29t77 81 29 114q0 61-28 112t-77 80-107 30q-58 0-108-29zm21 343l104-153-112-10-128 110 136 53z"/><glyph unicode="Ó" glyph-name="Oacute" horiz-adv-x="806" d="M508 711l86-47 135-129 50-184q0-101-49-184T594 37 403-11q-105 0-191 47T77 166 27 351q0 101 49 183t135 130 192 47q105 0 191-47zM347 573l-50-29-79-81-29-112q0-62 29-113t79-81 108-30q58 0 106 29t77 81 29 114q0 61-28 112t-77 80-107 30q-58 0-108-29zm91 343l136-53-136-110-112 10 112 153z"/><glyph unicode="Ô" glyph-name="Ocircumflex" horiz-adv-x="806" d="M508 711l86-47 135-129 50-184q0-101-49-184T594 37 403-11q-105 0-191 47T77 166 27 351q0 101 49 183t135 130 192 47q105 0 191-47zM347 573l-50-29-79-81-29-112q0-62 29-113t79-81 108-30q58 0 106 29t77 81 29 114q0 61-28 112t-77 80-107 30q-58 0-108-29zm235 186H460l-57 65-58-65H224l108 148h141l109-148z"/><glyph unicode="Õ" glyph-name="Otilde" horiz-adv-x="806" d="M508 711l86-47 135-129 50-184q0-101-49-184T594 37 403-11q-105 0-191 47T77 166 27 351q0 101 49 183t135 130 192 47q105 0 191-47zM347 573l-50-29-79-81-29-112q0-62 29-113t79-81 108-30q58 0 106 29t77 81 29 114q0 61-28 112t-77 80-107 30q-58 0-108-29zm231 260l-21-39-71-39q-22 0-42 7t-47 22q-12 7-24 12t-20 5q-15 0-21-10t-7-33h-91q0 72 21 111t71 39q22 0 42-7t47-22q31-18 44-18 15 0 21 11t7 32h91q0-71-21-110z"/><glyph unicode="Ö" glyph-name="Odieresis" horiz-adv-x="806" d="M508 711l86-47 135-129 50-184q0-101-49-184T594 37 403-11q-105 0-191 47T77 166 27 351q0 101 49 183t135 130 192 47q105 0 191-47zM347 573l-50-29-79-81-29-112q0-62 29-113t79-81 108-30q58 0 106 29t77 81 29 114q0 61-28 112t-77 80-107 30q-58 0-108-29zm-6 327l19-20 20-52q0-31-19-51t-51-21q-31 0-50 20t-20 52q0 32 19 52t51 20q31 0 50-20zm186 0l20-20 20-52q0-31-20-51t-50-21q-31 0-51 20t-20 52q0 31 20 51t51 21q30 0 50-20z"/><glyph unicode="×" glyph-name="multiply" horiz-adv-x="506" d="M443 446L324 326l119-120-70-72-120 121-120-121-70 72 119 120L63 446l70 72 120-121 120 121 70-72z"/><glyph unicode="Ø" glyph-name="Oslash" horiz-adv-x="806" d="M703 582l38-73 38-160q0-100-49-182T594 38 403-9q-82 0-155 30l-49-76H90l77 121q-66 50-103 123T27 349q0 100 49 181t135 127 192 46q80 0 153-28l51 80h109l-79-125q66-48 104-121zM189 304l16-39 45-69 228 356q-33 13-73 13-58 0-108-28t-79-78-29-111q0-44 16-83zm274-175l48 29 77 79 29 111q0 45-16 85t-46 70L326 144q37-15 79-15 58 0 106 29z"/><glyph unicode="Ù" glyph-name="Ugrave" horiz-adv-x="753" d="M223 214l42-43 114-44q69 0 110 43t41 119v411h158V289q0-92-37-159T543 26 378-11q-95 0-166 36T103 129 65 289v411h158V289q0-75 42-118zm119 702l104-153-112-10-128 110 136 53z"/><glyph unicode="Ú" glyph-name="Uacute" horiz-adv-x="753" d="M223 214l42-43 114-44q69 0 110 43t41 119v411h158V289q0-92-37-159T543 26 378-11q-95 0-166 36T103 129 65 289v411h158V289q0-75 42-118zm189 702l136-53-136-110-112 10 112 153z"/><glyph unicode="Û" glyph-name="Ucircumflex" horiz-adv-x="753" d="M223 214l42-43 114-44q69 0 110 43t41 119v411h158V289q0-92-37-159T543 26 378-11q-95 0-166 36T103 129 65 289v411h158V289q0-75 42-118zm333 545H434l-57 65-58-65H198l108 148h141l109-148z"/><glyph unicode="Ü" glyph-name="Udieresis" horiz-adv-x="753" d="M223 214l42-43 114-44q69 0 110 43t41 119v411h158V289q0-92-37-159T543 26 378-11q-95 0-166 36T103 129 65 289v411h158V289q0-75 42-118zm92 686l19-20 20-52q0-31-19-51t-51-21q-31 0-50 20t-20 52q0 32 19 52t51 20q31 0 50-20zm186 0l20-20 20-52q0-31-20-51t-50-21q-31 0-51 20t-20 52q0 31 20 51t51 21q30 0 50-20z"/><glyph unicode="Ý" glyph-name="Yacute" horiz-adv-x="666" d="M669 700L414 226V0H256v222L-3 700h159l179-314 175 314h159zM368 916l136-53-136-110-112 10 112 153z"/><glyph unicode="Þ" glyph-name="Thorn" horiz-adv-x="685" d="M505 606l78-63 79-176q0-119-78-185t-218-67H235V0H77v700h158v-94h131q139 0 217-63zm-77-365l36 31 36 90q0 57-36 87t-105 31H235V241h124q69 0 105 31z"/><glyph unicode="ß" glyph-name="germandbls" horiz-adv-x="660" d="M65 569l32 58 92 90 141 32q74 0 130-24t88-70 32-104q0-54-28-100t-75-68q66-17 105-61t40-109q0-63-33-111t-96-75T349 0h-50v114h47q59 0 92 27t34 72q0 47-37 72t-105 25h-17v113q56 0 87 27t31 78q0 48-27 74t-74 27q-53 0-82-33t-30-94V0H65v491q0 78 32 136z"/><glyph unicode="à" glyph-name="agrave" horiz-adv-x="596" d="M386 0v63q-27-34-70-52T217-7Q132-7 82 39T32 161q0 76 53 118t152 44h148v10q0 43-28 66t-84 24q-75 0-160-47L65 482q64 32 120 47t123 15q108 0 167-51t61-142l1-351H386zm-78 103l35 23 42 58v48H264q-45 0-66-14t-22-47q0-31 22-49t62-19q48 0 83 23zm-47 662l104-153-112-10-128 110 136 53z"/><glyph unicode="á" glyph-name="aacute" horiz-adv-x="596" d="M386 0v63q-27-34-70-52T217-7Q132-7 82 39T32 161q0 76 53 118t152 44h148v10q0 43-28 66t-84 24q-75 0-160-47L65 482q64 32 120 47t123 15q108 0 167-51t61-142l1-351H386zm-78 103l35 23 42 58v48H264q-45 0-66-14t-22-47q0-31 22-49t62-19q48 0 83 23zm22 662l136-53-136-110-112 10 112 153z"/><glyph unicode="â" glyph-name="acircumflex" horiz-adv-x="596" d="M386 0v63q-27-34-70-52T217-7Q132-7 82 39T32 161q0 76 53 118t152 44h148v10q0 43-28 66t-84 24q-75 0-160-47L65 482q64 32 120 47t123 15q108 0 167-51t61-142l1-351H386zm-78 103l35 23 42 58v48H264q-45 0-66-14t-22-47q0-31 22-49t62-19q48 0 83 23zm167 509H353l-57 65-58-65H117l108 148h141l109-148z"/><glyph unicode="ã" glyph-name="atilde" horiz-adv-x="596" d="M386 0v63q-27-34-70-52T217-7Q132-7 82 39T32 161q0 76 53 118t152 44h148v10q0 43-28 66t-84 24q-75 0-160-47L65 482q64 32 120 47t123 15q108 0 167-51t61-142l1-351H386zm-78 103l35 23 42 58v48H264q-45 0-66-14t-22-47q0-31 22-49t62-19q48 0 83 23zm163 575l-21-39-71-39q-22 0-42 7t-47 22q-12 7-24 12t-20 5q-15 0-21-10t-7-33h-91q0 72 21 111t71 39q22 0 42-7t47-22q31-18 44-18 15 0 21 11t7 32h91q0-71-21-110z"/><glyph unicode="ä" glyph-name="adieresis" horiz-adv-x="596" d="M386 0v63q-27-34-70-52T217-7Q132-7 82 39T32 161q0 76 53 118t152 44h148v10q0 43-28 66t-84 24q-75 0-160-47L65 482q64 32 120 47t123 15q108 0 167-51t61-142l1-351H386zm-78 103l35 23 42 58v48H264q-45 0-66-14t-22-47q0-31 22-49t62-19q48 0 83 23zm-75 655l20-20 20-52q0-31-20-51t-50-20q-31 0-50 20t-20 51q0 32 19 52t51 20q30 0 50-20zm187 0l19-20 20-52q0-31-19-51t-51-20q-30 0-50 20t-20 51q0 31 20 51t50 21q31 0 50-20z"/><glyph unicode="å" glyph-name="aring" horiz-adv-x="596" d="M386 0v63q-27-34-70-52T217-7Q132-7 82 39T32 161q0 76 53 118t152 44h148v10q0 43-28 66t-84 24q-75 0-160-47L65 482q64 32 120 47t123 15q108 0 167-51t61-142l1-351H386zm-78 103l35 23 42 58v48H264q-45 0-66-14t-22-47q0-31 22-49t62-19q48 0 83 23zm36 707l34-34 34-81q0-48-34-82t-82-34q-48 0-82 34t-34 82q0 47 34 81t82 34q48 0 82-34zm-68-70l-13-13-14-32q0-19 13-32t34-14q20 0 33 13t14 33q0 19-13 32t-34 13q-20 0-33-13z"/><glyph unicode="æ" glyph-name="ae" horiz-adv-x="969" d="M548 177l41-31 95-32q39 0 74 15t63 43l81-84q-42-46-100-70T672-6q-77 0-134 30t-90 87q-32-58-88-88T225-7Q137-7 85 38T32 158q0 75 53 115t153 41h149v23q-2 41-31 63t-82 23q-38 0-83-12t-90-35L65 484q129 60 243 60 61 0 107-17t76-49q67 65 176 65 86 0 149-38t96-108 29-163H544v-11q4-46 45-77zm239 189l-33 34-85 35q-51 0-85-34t-42-89h246q-1 54-34 88zM224 237l-24-17-24-49q0-34 23-54t62-20q86 0 127 74l-1 66H269q-45 0-69-17z"/><glyph unicode="ç" glyph-name="ccedilla" horiz-adv-x="563" d="M512 64l-51-30L344-4l-19-50q42-9 62-30t20-51q0-46-35-70t-88-24q-51 0-105 21l26 75q27-10 54-10 18 0 29 6t12 16q0 12-14 18t-38 7h-27l30 94Q149 13 89 86T28 267q0 82 34 144t97 97 145 35q77 0 137-29t96-84l-104-75q-46 57-120 57-58 0-94-39t-37-105q0-65 36-105t92-41q84 0 125 63l106-72q-29-49-80-79z"/><glyph unicode="è" glyph-name="egrave" horiz-adv-x="597" d="M435 543l67-75 68-209q0-24-1-37H183q13-51 50-79t89-29q38 0 73 14t63 43l81-82q-41-46-99-70T309-6q-85 0-148 34t-98 96-35 143q0 82 35 144t98 97 144 35q130 0 197-75zm-10-230q-2 53-34 85t-85 32q-50 0-83-31t-43-86h245zM265 764l104-153-112-10-128 110 136 53z"/><glyph unicode="é" glyph-name="eacute" horiz-adv-x="597" d="M435 543l67-75 68-209q0-24-1-37H183q13-51 50-79t89-29q38 0 73 14t63 43l81-82q-41-46-99-70T309-6q-85 0-148 34t-98 96-35 143q0 82 35 144t98 97 144 35q130 0 197-75zm-10-230q-2 53-34 85t-85 32q-50 0-83-31t-43-86h245zm-91 451l136-53-136-110-112 10 112 153z"/><glyph unicode="ê" glyph-name="ecircumflex" horiz-adv-x="597" d="M435 543l67-75 68-209q0-24-1-37H183q13-51 50-79t89-29q38 0 73 14t63 43l81-82q-41-46-99-70T309-6q-85 0-148 34t-98 96-35 143q0 82 35 144t98 97 144 35q130 0 197-75zm-10-230q-2 53-34 85t-85 32q-50 0-83-31t-43-86h245zm54 298H357l-57 65-58-65H121l108 148h141l109-148z"/><glyph unicode="ë" glyph-name="edieresis" horiz-adv-x="597" d="M435 543l67-75 68-209q0-24-1-37H183q13-51 50-79t89-29q38 0 73 14t63 43l81-82q-41-46-99-70T309-6q-85 0-148 34t-98 96-35 143q0 82 35 144t98 97 144 35q130 0 197-75zm-10-230q-2 53-34 85t-85 32q-50 0-83-31t-43-86h245zM237 757l20-20 20-52q0-31-20-51t-50-20q-31 0-50 20t-20 51q0 32 19 52t51 20q30 0 50-20zm187 0l19-20 20-52q0-31-19-51t-51-20q-30 0-50 20t-20 51q0 31 20 51t50 21q31 0 50-20z"/><glyph unicode="ì" glyph-name="igrave" horiz-adv-x="302" d="M74 538h154V0H74v538zm42 227l104-153-112-10-128 110 136 53z"/><glyph unicode="í" glyph-name="iacute" horiz-adv-x="302" d="M74 538h154V0H74v538zm111 227l136-53-136-110-112 10 112 153z"/><glyph unicode="î" glyph-name="icircumflex" horiz-adv-x="302" d="M74 538h154V0H74v538zm256 74H208l-57 65-58-65H-28L80 760h141l109-148z"/><glyph unicode="ï" glyph-name="idieresis" horiz-adv-x="302" d="M74 538h154V0H74v538zm21 220l19-20 20-51q0-31-19-52t-50-21q-31 0-51 21t-20 52q0 31 20 51t51 20q30 0 49-20zm173 0l20-20 20-51q0-31-20-52t-50-21q-30 0-50 21t-20 52q0 31 19 51t51 20q30 0 50-20z"/><glyph unicode="ð" glyph-name="eth" horiz-adv-x="600" d="M491 545l40-87 41-179q0-86-35-151T436 28 283-7q-77 0-135 28t-90 81-32 123q0 100 61 160t166 60q52 0 97-18t70-48q-6 48-36 95t-79 89l-177-81-32 66 143 66q-60 39-130 68l103 67q80-33 144-81l140 64 32-66-110-50q73-71 113-158zM344 125l32 29 32 77q0 48-32 77t-86 30q-53 0-85-28t-32-77q0-49 32-78t85-30q54 0 86 29z"/><glyph unicode="ñ" glyph-name="ntilde" horiz-adv-x="670" d="M504 544l53-56 54-150V0H457v293q0 51-28 80t-78 30q-57-1-90-39t-33-99V0H74v538h154v-94q56 98 186 100 90 0 143-56zm22 134l-21-39-71-39q-22 0-42 7t-47 22q-12 7-24 12t-20 5q-15 0-21-10t-7-33h-91q0 72 21 111t71 39q22 0 42-7t47-22q31-18 44-18 15 0 21 11t7 32h91q0-71-21-110z"/><glyph unicode="ò" glyph-name="ograve" horiz-adv-x="633" d="M402 543l65-34 102-96 36-144q0-81-36-143T468 29 317-6q-86 0-151 34T64 125 28 269q0 82 36 144t101 96 152 34q85 0 150-34zM257 415l-37-41-38-107q0-66 37-107t98-41q59 0 96 41t38 107q0 66-37 107t-97 41q-60 0-97-41zm25 350l104-153-112-10-128 110 136 53z"/><glyph unicode="ó" glyph-name="oacute" horiz-adv-x="633" d="M402 543l65-34 102-96 36-144q0-81-36-143T468 29 317-6q-86 0-151 34T64 125 28 269q0 82 36 144t101 96 152 34q85 0 150-34zM257 415l-37-41-38-107q0-66 37-107t98-41q59 0 96 41t38 107q0 66-37 107t-97 41q-60 0-97-41zm94 350l136-53-136-110-112 10 112 153z"/><glyph unicode="ô" glyph-name="ocircumflex" horiz-adv-x="633" d="M402 543l65-34 102-96 36-144q0-81-36-143T468 29 317-6q-86 0-151 34T64 125 28 269q0 82 36 144t101 96 152 34q85 0 150-34zM257 415l-37-41-38-107q0-66 37-107t98-41q59 0 96 41t38 107q0 66-37 107t-97 41q-60 0-97-41zm239 197H374l-57 65-58-65H138l108 148h141l109-148z"/><glyph unicode="õ" glyph-name="otilde" horiz-adv-x="633" d="M402 543l65-34 102-96 36-144q0-81-36-143T468 29 317-6q-86 0-151 34T64 125 28 269q0 82 36 144t101 96 152 34q85 0 150-34zM257 415l-37-41-38-107q0-66 37-107t98-41q59 0 96 41t38 107q0 66-37 107t-97 41q-60 0-97-41zm235 263l-21-39-71-39q-22 0-42 7t-47 22q-12 7-24 12t-20 5q-15 0-21-10t-7-33h-91q0 72 21 111t71 39q22 0 42-7t47-22q31-18 44-18 15 0 21 11t7 32h91q0-71-21-110z"/><glyph unicode="ö" glyph-name="odieresis" horiz-adv-x="633" d="M402 543l65-34 102-96 36-144q0-81-36-143T468 29 317-6q-86 0-151 34T64 125 28 269q0 82 36 144t101 96 152 34q85 0 150-34zM257 415l-37-41-38-107q0-66 37-107t98-41q59 0 96 41t38 107q0 66-37 107t-97 41q-60 0-97-41zm-3 343l20-20 20-52q0-31-20-51t-50-20q-31 0-50 20t-20 51q0 32 19 52t51 20q30 0 50-20zm187 0l19-20 20-52q0-31-19-51t-51-20q-30 0-50 20t-20 51q0 31 20 51t50 21q31 0 50-20z"/><glyph unicode="÷" glyph-name="divide" horiz-adv-x="506" d="M284 584l20-20 21-54q0-33-20-54t-53-21q-31 0-51 21t-21 54q0 33 20 53t52 21q32 0 52-20zM33 377h440V275H33v102zm251-150l20-20 21-54q0-33-20-54t-53-21q-31 0-51 21t-21 54q0 33 20 53t52 21q32 0 52-20z"/><glyph unicode="ø" glyph-name="oslash" horiz-adv-x="633" d="M554 448l25-55 26-124q0-81-36-143T468 29 317-6q-72 0-128 24L116-89H32l96 141q-48 37-74 92T28 269q0 82 36 144t101 96 152 34q72 0 129-24l74 108h84l-97-143q47-36 72-91zM173 206l30-44 173 254q-25 12-59 12-65 0-104-44t-40-117q0-61 30-105zm208-100l40 44 40 117q0 63-31 105L257 118q27-12 60-12 64 0 104 44z"/><glyph unicode="ù" glyph-name="ugrave" horiz-adv-x="660" d="M585 538V0H432v95Q377-6 252-6q-89 0-141 55T58 200v338h154V244q0-51 27-80t74-29q55 1 87 39t32 98v266h153zM295 765l104-153-112-10-128 110 136 53z"/><glyph unicode="ú" glyph-name="uacute" horiz-adv-x="660" d="M585 538V0H432v95Q377-6 252-6q-89 0-141 55T58 200v338h154V244q0-51 27-80t74-29q55 1 87 39t32 98v266h153zM364 765l136-53-136-110-112 10 112 153z"/><glyph unicode="û" glyph-name="ucircumflex" horiz-adv-x="660" d="M585 538V0H432v95Q377-6 252-6q-89 0-141 55T58 200v338h154V244q0-51 27-80t74-29q55 1 87 39t32 98v266h153zm-76 74H387l-57 65-58-65H151l108 148h141l109-148z"/><glyph unicode="ü" glyph-name="udieresis" horiz-adv-x="660" d="M585 538V0H432v95Q377-6 252-6q-89 0-141 55T58 200v338h154V244q0-51 27-80t74-29q55 1 87 39t32 98v266h153zM267 758l20-20 20-52q0-31-20-51t-50-20q-31 0-50 20t-20 51q0 32 19 52t51 20q30 0 50-20zm187 0l19-20 20-52q0-31-19-51t-51-20q-30 0-50 20t-20 51q0 31 20 51t50 21q31 0 50-20z"/><glyph unicode="ý" glyph-name="yacute" horiz-adv-x="564" d="M279-201H138q-43 0-78 12t-68 40L57-38q35-29 70-29 49 0 71 48l15 30-223 527h159l141-370 127 370h154L335-60q-56-141-197-141zm39 966l136-53-136-110-112 10 112 153z"/><glyph unicode="þ" glyph-name="thorn" horiz-adv-x="684" d="M262 501l43 21 98 21q75 0 132-34t89-98 32-145q0-81-31-142t-87-96T406-6q-56 0-100 21t-73 62v-271H79v936h154V461q29 40 72 61zm46-82l-37-41-38-107q0-67 37-108t97-41q59 0 96 41t37 108q0 65-37 106t-96 42q-59 0-96-41z"/><glyph unicode="ÿ" glyph-name="ydieresis" horiz-adv-x="564" d="M279-201H138q-43 0-78 12t-68 40L57-38q35-29 70-29 49 0 71 48l15 30-223 527h159l141-370 127 370h154L335-60q-56-141-197-141zm-58 959l20-20 20-52q0-31-20-51t-50-20q-31 0-50 20t-20 51q0 32 19 52t51 20q30 0 50-20zm187 0l19-20 20-52q0-31-19-51t-51-20q-30 0-50 20t-20 51q0 31 20 51t50 21q31 0 50-20z"/><glyph unicode="–" glyph-name="endash" horiz-adv-x="407" d="M0 357h407V255H0v102z"/><glyph unicode="—" glyph-name="emdash" horiz-adv-x="662" d="M0 357h662V255H0v102z"/><glyph unicode="‘" glyph-name="quoteleft" horiz-adv-x="232" d="M179 595v-42q0-34-22-56t-55-22q-31 0-53 21t-22 57q0 16 5 29t15 33l71 127h75l-47-126q33-21 33-63z"/><glyph unicode="’" glyph-name="quoteright" horiz-adv-x="232" d="M149 742l22-21 22-57q0-16-5-29t-15-33l-71-127H27l47 126q-33 21-33 63 0 34 22 56t55 22q31 0 53-21z"/><glyph unicode="‚" glyph-name="quotesinglbase" horiz-adv-x="232" d="M149 149l22-21 22-57q0-16-5-29T173 9l-71-127H27L74 8Q41 29 41 71q0 34 22 56t55 22q31 0 53-21z"/><glyph unicode="“" glyph-name="quotedblleft" horiz-adv-x="405" d="M179 595v-42q0-34-22-56t-55-22q-31 0-53 21t-22 57q0 16 5 29t15 33l71 127h75l-47-126q33-21 33-63zm173 0v-42q0-34-22-56t-55-22q-31 0-53 21t-22 57q0 16 5 29t15 33l71 127h75l-47-126q33-21 33-63z"/><glyph unicode="”" glyph-name="quotedblright" horiz-adv-x="405" d="M149 742l22-21 22-57q0-16-5-29t-15-33l-71-127H27l47 126q-33 21-33 63 0 34 22 56t55 22q31 0 53-21zm173 0l22-21 22-57q0-16-5-29t-15-33l-71-127h-75l47 126q-33 21-33 63 0 34 22 56t55 22q31 0 53-21z"/><glyph unicode="„" glyph-name="quotedblbase" horiz-adv-x="405" d="M149 149l22-21 22-57q0-16-5-29T173 9l-71-127H27L74 8Q41 29 41 71q0 34 22 56t55 22q31 0 53-21zm173 0l22-21 22-57q0-16-5-29T346 9l-71-127h-75L247 8q-33 21-33 63 0 34 22 56t55 22q31 0 53-21z"/><glyph unicode="•" glyph-name="bullet" horiz-adv-x="312" d="M206 392l32-33 33-85q0-53-32-86t-84-34q-50 0-82 34t-33 86q0 52 32 85t83 33q51 0 83-33z"/><glyph unicode="‹" glyph-name="guilsinglleft" horiz-adv-x="279" d="M128 446h126L147 265 254 83H128L9 265l119 181z"/><glyph unicode="›" glyph-name="guilsinglright" horiz-adv-x="279" d="M151 83H25l107 181L25 446h126l119-182L151 83z"/></font>
</defs>
</svg>
