<svg xmlns="http://www.w3.org/2000/svg"><defs><font id="Montserrat" horiz-adv-x="618"><font-face font-family="Montserrat" panose-1="0 0 8 0 0 0 0 0 0 0" ascent="968" descent="-251" alphabetic="0"/><glyph glyph-name="space" horiz-adv-x="222"/><glyph unicode="!" glyph-name="exclam" horiz-adv-x="258" d="M51 697h169V518l-31-275H82L51 518v179zm119-532l24-24 24-62q0-38-24-62T132-8Q95-8 71 16T47 79q0 38 23 62t62 24q38 0 62-24z"/><glyph unicode="&quot;" glyph-name="quotedbl" horiz-adv-x="446" d="M60 701h134V423H60v278zm192 0h134V423H252v278z"/><glyph unicode="#" glyph-name="numbersign" horiz-adv-x="736" d="M708 415H573l-18-138h134l-14-124H540L521 0H393l19 153H276L257 0H129l19 153H14l14 124h135l18 138H47l14 125h135l20 161h128l-20-161h136l20 161h128l-20-161h134l-14-125zM427 277l18 138H309l-18-138h136z"/><glyph unicode="$" glyph-name="dollar" horiz-adv-x="646" d="M621 118l-60-55L401-7v-148H268V-6Q197 5 132 33T16 103l71 143q53-47 125-77t129-30q41 0 64 15t24 44q0 24-17 40t-44 25-75 23q-72 20-119 40t-80 62-34 111q0 84 55 139t153 71v142h133V711q60-7 117-26t102-49l-69-146q-56 33-119 54t-107 21q-34 0-53-12t-20-37q0-23 17-38t42-25 74-25q73-21 120-42t82-64 34-114q0-90-60-145z"/><glyph unicode="%" glyph-name="percent" horiz-adv-x="994" d="M309 704l53-57 53-155q0-98-53-155t-143-58q-90 0-143 57T22 492q0 97 53 154t144 58q90 0 143-57zm-129-96l-22-31-22-85q0-54 22-85t61-31q39 0 61 31t22 85q0 54-22 85t-61 31q-39 0-61-31zm503 93h123L308 0H184l499 701zm183-280l53-57 53-155q0-98-53-155T776-4q-90 0-143 57t-54 156q0 97 53 154t144 58q90 0 143-57zm-129-96l-22-31-22-85q0-54 22-85t61-31q39 0 61 31t22 85q0 54-22 85t-61 31q-39 0-61-31z"/><glyph unicode="&amp;" glyph-name="ampersand" horiz-adv-x="688" d="M591-31L554 5q-22 20-61 59Q402-8 295-8q-68 0-123 26T86 90 55 196q0 65 37 108t101 79q-31 44-44 80t-14 75q0 78 54 124t147 46q59 0 105-20t71-56 26-82q0-66-43-109t-120-83q39-44 106-110 27 48 46 111l113-82q-26-69-63-122l37-35 67-63-90-88zM273 497l35-54q44 24 67 48t24 57q0 26-16 42t-45 17q-30 0-47-19t-18-49q0-42 35-96zm79-379l49 36q-80 78-139 144-30-19-46-40t-16-48q0-41 29-66t73-26q50 0 99 36z"/><glyph unicode="'" glyph-name="quotesingle" horiz-adv-x="254" d="M60 701h134V423H60v278z"/><glyph unicode="(" glyph-name="parenleft" horiz-adv-x="345" d="M288 651l-32-112-32-230q0-118 32-230t89-203H185Q123-36 90 75T57 309q0 122 33 233t95 200h160q-57-91-89-203z"/><glyph unicode=")" glyph-name="parenright" horiz-adv-x="345" d="M160 742q62-88 95-199t33-234q0-122-33-233t-95-200H0Q57-33 89 79t32 230q0 118-32 230T0 742h160z"/><glyph unicode="*" glyph-name="asterisk" horiz-adv-x="381" d="M146 719h89l-2-94 81 48 45-78-84-45 84-46-45-79-81 49 2-94h-89l2 95-81-49-45 78 83 46-83 45 45 79 81-49-2 94z"/><glyph unicode="+" glyph-name="plus" horiz-adv-x="511" d="M478 384V270H312V104H199v166H32v114h167v167h113V384h166z"/><glyph unicode="," glyph-name="comma" horiz-adv-x="243" d="M159 164l24-22 25-63q0-30-23-68l-80-133H20L72 11Q38 35 38 79q0 37 24 61t61 24q36 0 60-22z"/><glyph unicode="-" glyph-name="hyphen" horiz-adv-x="375" d="M55 364h265V250H55v114z"/><glyph unicode="." glyph-name="period" horiz-adv-x="245" d="M160 165l24-24 24-62q0-38-24-62T122-8Q85-8 61 16T37 79q0 38 23 62t62 24q38 0 62-24z"/><glyph unicode="/" glyph-name="slash" horiz-adv-x="355" d="M286 810h150L112-110H-38l324 920z"/><glyph unicode="0" glyph-name="zero" horiz-adv-x="703" d="M502 707l80-92 81-264q0-172-80-264T353-6Q202-6 122 86T41 351q0 172 80 264t232 92q149 0 229-92zM287 571l-29-51-29-169q0-118 29-169t95-52q64 0 93 52t30 169q0 117-29 168t-94 52q-66 0-95-51z"/><glyph unicode="1" glyph-name="one" horiz-adv-x="404" d="M-15 701h318V0H120v551H-15v150z"/><glyph unicode="2" glyph-name="two" horiz-adv-x="605" d="M572 147V0H38l-1 121 255 262q30 31 49 62t19 53q0 29-21 44t-59 16q-42 0-93-23T87 469L17 604q145 105 291 105 70 0 125-23t87-65 32-96q0-54-35-111T416 291L273 147h299z"/><glyph unicode="3" glyph-name="three" horiz-adv-x="603" d="M467 401l51-50 52-130q0-67-35-119t-99-81T286-8q-77 0-151 23T9 78l68 129q44-37 94-56t100-19q58 0 89 22t31 65q0 42-31 64t-90 22H152v100l162 156H46v140h490V595L345 420l37-7q85-12 136-62z"/><glyph unicode="4" glyph-name="four" horiz-adv-x="607" d="M574 290V151h-90V0H316v151H-1v124l199 426h174L185 290h131v149h168V290h90z"/><glyph unicode="5" glyph-name="five" horiz-adv-x="625" d="M401 447l61-27 95-75 34-110q0-73-35-128T456 22 305-8q-70 0-144 24T28 79l68 132q97-78 189-78 52 0 81 23t29 65q0 41-28 62t-86 22q-133 0-192-4v400h471V554H257V447h63q81 0 142-27z"/><glyph unicode="6" glyph-name="six" horiz-adv-x="630" d="M470 547l-37 11-78 12q-81 0-121-48t-39-136q53 75 163 75 67 0 117-28t78-80 28-120q0-73-32-127t-90-84T323-8q-92 0-159 42T61 154 25 339q0 111 39 195t112 129 168 46q58 0 118-16t105-42l-68-126q-29 22-66 33zM269 330l-27-27-28-71q0-42 26-69t76-27q47 0 74 25t27 73q0 45-26 70t-72 26q-50 0-77-27z"/><glyph unicode="7" glyph-name="seven" horiz-adv-x="589" d="M13 701h559V574L308 0H114l255 554H175l-1-99H13v246z"/><glyph unicode="8" glyph-name="eight" horiz-adv-x="631" d="M415 709l67-51 67-139q0-44-22-82t-61-62q55-25 87-72t32-106q0-62-34-108t-99-72T303-8q-85 0-148 25T56 87 21 194q0 59 35 107t93 74q-42 25-67 65t-25 84q0 56 30 98t85 64 130 23q113 0 180-51zM258 586l-24-20-25-57q0-36 24-55t70-20q46 0 70 19t24 56q0 37-24 57t-70 20q-45 0-69-20zm-8-286l-28-22-29-65q0-42 28-64t82-23q53 0 82 22t29 65q0 42-29 64t-82 23q-53 0-81-22z"/><glyph unicode="9" glyph-name="nine" horiz-adv-x="629" d="M135 154l37-11 77-12q80 0 121 48t39 137q-53-76-163-76-67 0-117 28t-77 80-28 120q0 73 32 127t90 84 135 30q92 0 159-42t103-120 36-185q0-111-39-195T428 38 260-8Q202-8 142 8T38 50l67 126q30-22 67-33zm106 411l-26-25-26-73q0-45 25-70t71-26q50 0 77 27t28 72q0 41-26 68t-76 27q-47 0-73-25z"/><glyph unicode=":" glyph-name="colon" horiz-adv-x="245" d="M160 462l24-24 24-62q0-38-24-62t-62-25q-37 0-61 24t-24 63q0 38 23 62t62 24q38 0 62-24zm0-297l24-24 24-62q0-38-24-62T122-8Q85-8 61 16T37 79q0 38 23 62t62 24q38 0 62-24z"/><glyph unicode=";" glyph-name="semicolon" horiz-adv-x="244" d="M160 462l24-24 24-62q0-38-24-62t-62-25q-37 0-61 24t-24 63q0 38 23 62t62 24q38 0 62-24zm-1-298l24-22 25-63q0-30-23-68l-80-133H20L72 11Q38 35 38 79q0 37 24 61t61 24q36 0 60-22z"/><glyph unicode="&lt;" glyph-name="less" horiz-adv-x="511" d="M478 582V455L147 324l331-131V66L32 251v146l446 185z"/><glyph unicode="=" glyph-name="equal" horiz-adv-x="511" d="M32 492h446V378H32v114zm0-216h446V162H32v114z"/><glyph unicode="&gt;" glyph-name="greater" horiz-adv-x="511" d="M33 74v127l331 131L33 463v127l446-185V259L33 74z"/><glyph unicode="?" glyph-name="question" horiz-adv-x="474" d="M23 582l61 61 168 61q101 0 159-46t58-129q0-53-24-88t-70-75q-40-36-59-62t-19-64H164q0 40 11 70t28 49 43 45q29 27 43 47t14 49q0 61-68 61-75 0-76-89l-137 1q1 109 62 170zm242-417l24-24 24-62q0-38-24-62T227-8q-37 0-61 24t-24 63q0 38 23 62t62 24q38 0 62-24z"/><glyph unicode="@" glyph-name="at" horiz-adv-x="912" d="M672 110h37q21 0 40 20t30 58 12 83q0 96-39 172T638 564t-176 45q-92 0-170-46T168 439t-46-171q0-92 43-166T283-14t167-42q46 0 97 15t91 46l46-80q-43-33-109-53t-125-21q-120 0-217 54T79 55 23 268q0 120 58 218t159 156 222 58q121 0 218-55t153-152 56-219q0-73-24-128t-69-86-99-31q-47 0-77 19t-40 58l-2 12q-28-40-66-59t-83-20q-56 0-106 29t-81 82-31 120q0 64 25 118t72 85 107 32q36 0 65-12t47-28 22-22v51h123V159q0-49 37-49zM399 391l-26-34-27-82q0-51 26-87t70-37q45 0 72 35t27 88q0 50-27 83t-74 34q-41 0-67-34z"/><glyph unicode="A" glyph-name="A" horiz-adv-x="773" d="M583 0l-48 124H232L183 0H-5l301 701h188L778 0H583zM287 264h194l-96 250-98-250z"/><glyph unicode="B" glyph-name="B" horiz-adv-x="716" d="M480 701l58-21 91-62 32-94q0-55-32-96t-89-56q67-13 105-61t39-116q0-59-33-103t-94-68T414 0H68v701h333q79 0 137-21zm-51-279l22 18 22 52q0 32-22 49t-60 17H251V422h140q38 0 60 18zm10-280l28 20 28 56q0 33-28 52t-76 19H251V142h140q48 0 76 20z"/><glyph unicode="C" glyph-name="C" horiz-adv-x="692" d="M541 506l-47 25-93 26q-53 0-96-26t-69-73-25-104q0-57 25-103t68-73 97-27q43 0 90 22t84 60l107-115q-57-60-135-95T391-13q-104 0-188 48T71 166 23 352q0 102 49 184t134 129 192 47q78 0 154-32t129-89L575 463q-34 43-81 68z"/><glyph unicode="D" glyph-name="D" horiz-adv-x="766" d="M480 701l84-44 132-123 47-183q0-103-47-183T562 44 363 0H68v701h302q110 0 194-44zm-52-553l41 25 64 71 23 105q0 60-24 106t-68 71-98 26H251V148h124q53 0 94 25z"/><glyph unicode="E" glyph-name="E" horiz-adv-x="675" d="M68 701h553V555H251V424h334V279l-334-1V146h380V0H68v701z"/><glyph unicode="F" glyph-name="F" horiz-adv-x="607" d="M68 701h524l-1-146H251V399h314V253H251V0H68v701z"/><glyph unicode="G" glyph-name="G" horiz-adv-x="743" d="M532 358h158V79q-56-41-137-66T398-13q-106 0-191 47T72 165 23 351q0 102 50 184t139 130 198 47q78 0 156-28t132-77L594 479q-38 36-87 57t-98 21q-56 0-101-27t-71-74-26-105q0-59 26-106t72-75 102-27q53 0 121 34v181z"/><glyph unicode="H" glyph-name="H" horiz-adv-x="785" d="M68 701h183V415h283v286h183V0H534v269H251V0H68v701z"/><glyph unicode="I" glyph-name="I" horiz-adv-x="319" d="M68 701h183V0H68v701z"/><glyph unicode="J" glyph-name="J" horiz-adv-x="539" d="M483 116l-65-62L239-8Q92-8-5 105l84 125q37-38 76-58t71-21q34 0 53 21t20 60v318H59v151h424V228q0-112-65-174z"/><glyph unicode="K" glyph-name="K" horiz-adv-x="749" d="M742 0H523L339 272l-88-98V0H68v701h183V397l263 304h212L466 412 742 0z"/><glyph unicode="L" glyph-name="L" horiz-adv-x="563" d="M68 701h183V156h297V0H68v701z"/><glyph unicode="M" glyph-name="M" horiz-adv-x="939" d="M68 701h199l203-410 202 410h199V0H709l-1 444L529 70H411L231 444V0H68v701z"/><glyph unicode="N" glyph-name="N" horiz-adv-x="786" d="M547 701h170V0H557L239 419V0H68v701h161l319-422-1 422z"/><glyph unicode="O" glyph-name="O" horiz-adv-x="804" d="M509 712l86-47 136-129 50-184q0-103-49-186T596 35 402-13q-107 0-193 47T73 165 23 352q0 102 49 184t136 129 194 47q107 0 193-47zM352 557l-44-27-71-74-26-105q0-58 26-105t71-75 96-28q52 0 95 27t69 75 25 106q0 57-25 104t-68 75-96 27q-52 0-96-27z"/><glyph unicode="P" glyph-name="P" horiz-adv-x="680" d="M510 701l74-64 74-182q0-124-74-192t-208-69H251V0H68v701h308q134 0 208-64zm-87-361l30 28 31 81q0 51-30 78t-87 28H251V340h116q56 0 86 28z"/><glyph unicode="Q" glyph-name="Q" horiz-adv-x="808" d="M816-89q-40-36-95-57t-109-21q-71 0-130 41T388-13q-104 3-187 51T71 169 23 352q0 102 49 184t136 129 194 47q107 0 193-47t136-129 50-184q0-116-62-206T553 15q37-43 79-43 24 0 55 14t65 38l64-113zM211 293l26-47 71-75 96-28q52 0 95 27t69 75 25 106q0 57-25 104t-68 75-96 27q-52 0-96-27t-71-74-26-105q0-58 26-105z"/><glyph unicode="R" glyph-name="R" horiz-adv-x="724" d="M489 0L387 194H251V0H68v701h315q139 0 215-64t77-182q0-79-32-136t-93-90L696 0H489zM251 340h133q56 0 86 28t31 81q0 51-30 78t-87 28H251V340z"/><glyph unicode="S" glyph-name="S" horiz-adv-x="646" d="M495 523l-63 21-107 21q-34 0-53-12t-20-37q0-23 17-38t42-25 74-25q73-21 120-42t82-64 34-114q0-70-37-119T483 14 339-11q-87 0-173 30T16 103l71 143q53-47 125-77t129-30q41 0 64 15t24 44q0 24-17 40t-44 25-75 23q-72 20-119 40t-80 62-34 111q0 65 34 114t98 75 148 27q76 0 150-21t130-58l-69-146q-56 33-119 54z"/><glyph unicode="T" glyph-name="T" horiz-adv-x="614" d="M7 701h601V550H398V0H215v550H7v151z"/><glyph unicode="U" glyph-name="U" horiz-adv-x="749" d="M239 223l39-40 99-40q59 0 95 39t37 107v412h183V289q0-91-38-159T544 24 376-13q-96 0-168 37T96 129 56 289v412h183V289q0-66 39-106z"/><glyph unicode="V" glyph-name="V" horiz-adv-x="732" d="M-2 701h197l175-507 176 507h188L460 0H270L-2 701z"/><glyph unicode="W" glyph-name="W" horiz-adv-x="1113" d="M927 701h188L878 0H690L557 477 422 0H234L-2 701h197l138-512 138 512h179l140-512 137 512z"/><glyph unicode="X" glyph-name="X" horiz-adv-x="738" d="M20 701h213l131-199 132 199h216L481 366 732 0H513L364 217 218 0H4l249 357L20 701z"/><glyph unicode="Y" glyph-name="Y" horiz-adv-x="684" d="M689 701L436 224V0H253v219L-5 701h183l166-301 162 301h183z"/><glyph unicode="Z" glyph-name="Z" horiz-adv-x="676" d="M40 701h602V581L272 147h376V0H27v119l370 435H40v147z"/><glyph unicode="[" glyph-name="bracketleft" horiz-adv-x="359" d="M66 742h278V608H224V10h120v-134H66v866z"/><glyph unicode="\" glyph-name="backslash" horiz-adv-x="355" d="M69 810l324-920H243L-81 810H69z"/><glyph unicode="]" glyph-name="bracketright" horiz-adv-x="359" d="M293 742v-866H15V10h120v598H15v134h278z"/><glyph unicode="^" glyph-name="asciicircum" horiz-adv-x="578" d="M547 138H420L289 425 158 138H31l185 386h146l185-386z"/><glyph unicode="_" glyph-name="underscore" horiz-adv-x="585" d="M0-106h585v-98H0v98z"/><glyph unicode="`" glyph-name="grave" horiz-adv-x="360" d="M190 770l106-161-123-10L42 714l148 56z"/><glyph unicode="a" glyph-name="a" horiz-adv-x="601" d="M424 548l62-51 63-145V0H374v61Q320-8 211-8 125-8 76 38T26 161q0 77 53 120t154 44h141v6q0 39-26 60t-77 21q-34 0-76-11t-86-32L60 489q66 30 126 44t126 15q112 0 174-51zM306 113l30 19 38 51v47H268q-75 0-75-56 0-28 19-44t54-17q40 0 70 19z"/><glyph unicode="b" glyph-name="b" horiz-adv-x="686" d="M485 547l57-34 88-98 32-147q0-82-30-144t-87-96T414-6q-51 0-92 19t-71 57V0H73v742h178V471q59 76 159 76 75 0 132-34zm-67-409l32 37 33 97q0 60-32 97t-85 38q-51 0-83-37t-32-98q0-60 32-97t83-37q52 0 84 37z"/><glyph unicode="c" glyph-name="c" horiz-adv-x="562" d="M379 400h-68q-48 0-78-36t-30-95q0-59 30-95t78-36q74 0 106 61l131-75q-32-62-96-96T302-6q-83 0-146 34t-97 96-35 144q0 83 35 146t98 98 147 35q81 0 144-33t98-95l-129-75q-38 56-106 56z"/><glyph unicode="d" glyph-name="d" horiz-adv-x="687" d="M614 742V0H436v70q-28-38-68-57T276-7q-75 0-132 35t-88 98-32 147q0 82 31 144t87 96 130 34q52 0 93-20t71-57v272h178zM372 133l32 37 32 98q0 61-32 98t-84 37q-52 0-84-37t-33-98q0-60 32-97t85-38q52 0 84 37z"/><glyph unicode="e" glyph-name="e" horiz-adv-x="603" d="M438 547l71-78 71-214q0-21-1-32H203q13-46 45-70t78-25q35 0 67 14t60 41l93-93q-42-47-101-71T310-6q-87 0-152 34t-99 96-35 144q0 83 35 146t99 98 148 35q132 0 203-78zm-31-229q0 47-27 75t-73 29q-42 0-70-28t-38-76h208z"/><glyph unicode="f" glyph-name="f" horiz-adv-x="396" d="M311 608l-17-15-17-43v-35h120V397H277V0H100v397H27v118h73v50q0 86 57 135t148 50q59 0 116-21l-23-135q-40 14-60 14-27 0-44-15z"/><glyph unicode="g" glyph-name="g" horiz-adv-x="648" d="M586 541V48q0-75-37-131t-103-87-154-31q-68 0-131 19T50-131L112-8q37-25 80-39t87-14q60 0 95 28t35 76v58q-54-71-154-71-67 0-119 32t-82 92-30 137q0 76 28 134t81 90 118 32q50 0 90-18t68-54v66h177zM349 160l30 35 30 91q0 57-30 92t-79 35q-49 0-79-35t-31-92q0-56 30-91t80-35q49 0 79 35z"/><glyph unicode="h" glyph-name="h" horiz-adv-x="679" d="M520 548l53-56 54-151V0H449v290q0 46-24 72t-68 27q-49-1-77-34t-29-88V0H73v742h178V453q29 47 74 71t105 24q90 0 143-56z"/><glyph unicode="i" glyph-name="i" horiz-adv-x="313" d="M68 541h177V0H68v541zm128 249l26-26 27-69q0-41-26-68t-68-27q-41 0-67 27t-27 68q0 42 26 68t68 27q41 0 67-26z"/><glyph unicode="j" glyph-name="j" horiz-adv-x="312" d="M-2-60h18q26 0 40 17T70 7v534h178V-20q0-84-51-132T57-201q-63 0-120 21l35 127q26-7 44-7zm199 850l26-26 27-69q0-41-26-68t-68-27q-41 0-67 27t-27 68q0 42 26 68t68 27q41 0 67-26z"/><glyph unicode="k" glyph-name="k" horiz-adv-x="633" d="M420 0L306 204l-55-57V0H73v742h178V358l173 183h202L428 332 630 0H420z"/><glyph unicode="l" glyph-name="l" horiz-adv-x="324" d="M73 742h178V0H73v742z"/><glyph unicode="m" glyph-name="m" horiz-adv-x="1037" d="M878 548l53-56 53-151V0H806v290q0 46-24 72t-65 27q-47-1-74-34t-28-88V0H437v290q0 46-24 72t-65 27q-47-1-75-34t-28-88V0H68v541h177v-89q28 47 72 71t104 25q66 0 113-32t67-89q26 60 74 90t115 31q88 0 141-56z"/><glyph unicode="n" glyph-name="n" horiz-adv-x="674" d="M514 548l53-56 54-151V0H444v290q0 46-25 72t-67 27q-44-1-72-29t-34-74V0H68v541h178v-88q29 47 74 71t105 24q89 0 142-56z"/><glyph unicode="o" glyph-name="o" horiz-adv-x="638" d="M407 547l67-34 104-97 37-145q0-83-37-145T474 29 319-6q-88 0-155 34T61 125 24 271q0 82 36 144t104 97 155 35q88 0 155-34zM267 403l-32-37-32-97q0-61 32-98t84-37q53 0 85 37t32 98q0 60-32 97t-85 37q-52 0-84-37z"/><glyph unicode="p" glyph-name="p" horiz-adv-x="686" d="M485 547l57-34 88-98 32-147q0-82-30-144t-87-96T414-6q-51 0-92 19t-71 57v-264H73v735h178v-70q59 76 159 76 75 0 132-34zm-67-409l32 37 33 97q0 60-32 97t-85 38q-51 0-83-37t-32-98q0-60 32-97t83-37q52 0 84 37z"/><glyph unicode="q" glyph-name="q" horiz-adv-x="687" d="M614 541v-735H436V70q-28-38-68-57T276-7q-75 0-132 35t-88 98-32 147q0 82 31 144t87 96 130 34q52 0 93-20t71-57v71h178zM372 133l32 37 32 98q0 61-32 98t-84 37q-52 0-84-37t-33-98q0-60 32-97t85-38q52 0 84 37z"/><glyph unicode="r" glyph-name="r" horiz-adv-x="430" d="M274 498l44 25 102 25V385q-9 1-27 1-63 0-102-29t-45-81V0H68v541h178v-90q28 47 72 72z"/><glyph unicode="s" glyph-name="s" horiz-adv-x="517" d="M324 425h-67q-23 0-37-8t-14-26q0-18 22-29t70-24q58-17 96-33t67-50 28-88q0-82-63-128T260-8q-69 0-132 19T16 69l56 115q46-32 96-49t96-18q26 0 41 8t16 25q0 20-22 31t-71 24q-57 17-94 33t-64 50-28 86q0 82 62 128t160 47q59 0 116-16t109-47l-60-116q-105 55-172 55z"/><glyph unicode="t" glyph-name="t" horiz-adv-x="437" d="M420 28q-30-17-69-26T272-8q-80 0-129 46T93 165v232H18v118h75v150h177V515h140V397H270V193q0-57 47-57 29 0 69 18l34-126z"/><glyph unicode="u" glyph-name="u" horiz-adv-x="664" d="M596 541V0H418v88Q363-6 245-8q-88 0-140 56T52 199v342h178V250q0-46 23-72t64-26q47 1 74 34t27 88v267h178z"/><glyph unicode="v" glyph-name="v" horiz-adv-x="575" d="M-5 541h183l113-376 114 376h178L380 0H197L-5 541z"/><glyph unicode="w" glyph-name="w" horiz-adv-x="941" d="M-5 541h181l108-366 106 366h170l107-366 108 366h174L751 0H575L472 334 368 0H192L-5 541z"/><glyph unicode="x" glyph-name="x" horiz-adv-x="611" d="M15 541h204l87-152 94 152h195L424 277 607 0H402l-96 165L199 0H3l184 277L15 541z"/><glyph unicode="y" glyph-name="y" horiz-adv-x="584" d="M329-129l-52-36-129-37q-45 0-84 13t-76 43L62-23q19-16 36-23t36-7q44 0 65 41l13 25-224 528h183l129-352 115 352h177L360-53q-31-76-83-112z"/><glyph unicode="z" glyph-name="z" horiz-adv-x="555" d="M43 541l474-1V432L257 136h270V0H34v108l260 296H43v137z"/><glyph unicode="{" glyph-name="braceleft" horiz-adv-x="363" d="M258 375l-22-25-80-41q57-16 79-41t23-82V72q0-36 18-50t69-14v-134h-68q-66 0-104 13t-56 45-17 84v182q0 23-8 32t-29 10H24v138h39q20 0 28 9t9 33v181q0 54 17 85t55 44 105 14h68V610q-50 0-68-14t-19-50V431q0-56-22-81z"/><glyph unicode="|" glyph-name="bar" horiz-adv-x="302" d="M85 802h132v-911H85v911z"/><glyph unicode="}" glyph-name="braceright" horiz-adv-x="363" d="M339 378V240h-39q-20 0-28-9t-9-33V16q0-53-17-84t-55-44-105-14H18V8q50 0 68 14t19 50v114q0 57 22 82t80 41q-57 16-79 41t-23 81v115q0 35-18 49t-69 15v134h68q66 0 104-13t56-45 17-85V420q0-23 8-32t29-10h39z"/><glyph unicode="~" glyph-name="asciitilde" horiz-adv-x="511" d="M456 321l-28-43-86-43q-27 0-48 8t-45 24q-29 18-43 18-31 0-31-45H55q0 88 28 131t87 44q26 0 47-8t45-24q3-2 12-7t18-8 14-3q31 0 31 45h119q0-89-28-132z"/><glyph glyph-name="uni00A0" horiz-adv-x="222"/><glyph unicode="¡" glyph-name="exclamdown" horiz-adv-x="258" d="M101 375l-24 24-24 62q0 38 24 62t62 25q37 0 61-24t24-63q0-38-23-62t-62-24q-38 0-62 24zm119-532H51V22l31 275h107l31-275v-179z"/><glyph unicode="¢" glyph-name="cent" horiz-adv-x="600" d="M523 76l-44-31L375 1v-156H243V-1Q142 16 83 88T24 268q0 110 59 183t160 91v159h132V540q56-12 100-43t71-78l-129-75q-38 56-106 56-48 0-78-36t-30-95q0-59 30-95t78-36q74 0 106 61l131-75q-25-48-69-79z"/><glyph unicode="£" glyph-name="sterling" horiz-adv-x="564" d="M287 140h256V0H27v140h76v171H27v66h76v95q0 113 62 175t178 62q61 0 117-22t97-64l-68-136q-66 66-126 66-76 0-76-85v-91h166v-66H287V140z"/><glyph unicode="¤" glyph-name="currency" horiz-adv-x="701" d="M611 252l-35-60L677 91 578-10 473 94q-58-30-123-30-66 0-122 31L123-10 24 91l101 101q-35 60-35 129 0 66 32 125l-98 98 99 101 99-99q59 34 128 34 70 0 129-34l99 99 99-101-98-98q32-59 32-125 0-69-35-129zm-211-46l36 33 36 82q0 49-36 83t-86 35q-50 0-85-34t-36-84q0-48 35-81t86-34q50 0 86 33z"/><glyph unicode="¥" glyph-name="yen" horiz-adv-x="694" d="M694 701L495 326h135v-66H460l-19-36v-15h189v-66H441V0H258v143H67v66h191v10l-22 41H67v66h134L0 701h183l166-301 162 301h183z"/><glyph unicode="¦" glyph-name="brokenbar" horiz-adv-x="302" d="M85 802h132V460H85v342zm0-569h132v-342H85v342z"/><glyph unicode="§" glyph-name="section" horiz-adv-x="549" d="M351 575h-65q-29 0-45-9t-16-26q0-21 25-34t79-29q60-19 99-36t68-51 29-83q0-43-27-78t-72-56q34-20 49-41t15-58q0-47-28-84t-79-57-120-21q-67 0-131 19T16-11l50 112q50-33 99-50t93-18q32 0 49 10t18 26q0 20-24 32t-77 29q-59 19-98 36t-67 50-28 83q0 46 27 80t77 53q-40 21-55 44t-15 56q0 47 27 84t76 57 116 21q114 0 226-62l-53-111q-106 54-171 54zM226 349l-18-10-18-28q0-23 28-37t71-15q35 0 53 10t19 29q0 22-29 36t-72 15q-34 0-52-10z"/><glyph unicode="¨" glyph-name="dieresis" horiz-adv-x="426" d="M157 766l21-22 22-56q0-33-21-54t-55-22q-33 0-54 21t-22 55q0 34 21 56t55 22q33 0 54-22zm192 0l21-22 22-56q0-33-21-54t-55-22q-34 0-55 21t-21 55q0 35 21 56t55 22q33 0 54-22z"/><glyph unicode="©" glyph-name="copyright" horiz-adv-x="723" d="M455 689l77-45 123-124 45-170q0-91-45-169T532 56 360 9q-93 0-170 46T68 179 23 348q0 91 45 169t122 125 172 47q93 0 170-45zm-165-83l-58-35-93-94-34-129q0-70 33-128t92-93 130-35q72 0 131 35t93 94 35 129q0 70-34 128t-93 93-130 35q-72 0-130-35zm144-187l-21 11-43 12q-38 0-64-26t-26-65q0-40 26-66t64-27q20 0 42 10t39 28l49-54q-26-28-62-44t-73-16q-48 0-87 21t-62 60-23 86q0 47 23 84t63 59 89 22q36 0 72-15t60-41l-49-59q-17 20-38 31z"/><glyph unicode="ª" glyph-name="ordfeminine" horiz-adv-x="394" d="M276 787l40-31 41-88V458H238v40q-34-45-104-45-53 0-83 27t-31 74q0 46 34 71t98 26h85v3q0 44-61 44-44 0-106-24l-28 80q91 33 162 33 72 0 112-31zm-59-258l20 32v34h-60q-42 0-42-32 0-16 10-25t30-9q42 0 62 32z"/><glyph unicode="«" glyph-name="guillemotleft" horiz-adv-x="506" d="M121 452h144L158 267 265 81H121L0 267l121 185zm225 0h144L383 267 490 81H346L225 267l121 185z"/><glyph unicode="¬" glyph-name="logicalnot" horiz-adv-x="580" d="M517 430V136H389v180H32v114h485z"/><glyph unicode="­" glyph-name="uni00AD" horiz-adv-x="375" d="M55 364h265V250H55v114z"/><glyph unicode="®" glyph-name="registered" horiz-adv-x="723" d="M455 689l77-45 123-124 45-170q0-91-45-169T532 56 360 9q-93 0-170 46T68 179 23 348q0 91 45 169t122 125 172 47q93 0 170-45zM432 92l59 35 93 94 35 129q0 70-34 128t-93 93-130 35q-72 0-130-35t-93-94-34-129q0-70 33-128t92-93 130-35q72 0 131 35zm72 280l-14-26-43-40 67-104h-93l-47 88h-60v-88h-81v317h138q64 0 98-29t35-82q0-36-14-62zm-190-18h57q26 0 40 13t15 38q0 25-14 37t-41 13h-57V354z"/><glyph unicode="¯" glyph-name="overscore" horiz-adv-x="344" d="M21 744h309V639H21v105z"/><glyph unicode="°" glyph-name="degree" horiz-adv-x="377" d="M252 818l35-34 35-84q0-49-35-84t-84-35q-49 0-84 35t-35 84q0 49 35 83t84 35q49 0 84-34zm-70-69l-15-14-15-35q0-20 15-34t36-15q21 0 35 14t15 35q0 20-14 34t-36 15q-21 0-36-14z"/><glyph unicode="±" glyph-name="plusminus" horiz-adv-x="511" d="M312 457h166V348H312V188H199v160H32v109h167v161h113V457zM32-1v114h446V-1H32z"/><glyph unicode="²" glyph-name="uni00B2" horiz-adv-x="380" d="M214 630v24q0 14-11 22t-30 8q-25 0-56-14t-62-40L7 718q94 65 186 65 66 0 109-30t43-81q0-34-22-68t-62-73l-80-77h174v-94H22v77l154 155q38 38 38 62z"/><glyph unicode="³" glyph-name="uni00B3" horiz-adv-x="370" d="M292 598l28-29 28-77q0-61-46-99t-124-38q-47 0-92 14T9 408l51 93q48-55 108-55 28 0 42 11t15 34q0 45-58 45H94v64l92 88H31v88h297v-69l-103-96 20-4q47-9 75-38z"/><glyph unicode="´" glyph-name="acute" horiz-adv-x="350" d="M162 770l147-56-145-115-122 10 120 161z"/><glyph unicode="µ" glyph-name="uni00B5" horiz-adv-x="685" d="M617 541V0H439v88Q384-6 266-8h-15v-186H73v735h178V250q0-46 23-72t64-26q47 1 74 34t27 88v267h178z"/><glyph unicode="¶" glyph-name="paragraph" horiz-adv-x="653" d="M197 320q-75 0-120 32t-64 80-19 95q0 58 25 106t80 79 139 30h347v-849H453v747h-98v-747H223v427h-26z"/><glyph unicode="·" glyph-name="middot" horiz-adv-x="235" d="M157 386l26-26 27-69q0-41-26-68t-68-27q-41 0-67 27t-27 68q0 42 26 68t68 27q41 0 67-26z"/><glyph unicode="¸" glyph-name="cedilla" horiz-adv-x="321" d="M235 0l-20-56q42-9 62-30t20-51q0-48-36-72t-92-25q-55 0-110 20l28 80q22-9 51-9 18 0 29 6t11 16q0 11-15 17t-38 6h-24L136 9l99-9z"/><glyph unicode="¹" glyph-name="uni00B9" horiz-adv-x="261" d="M2 778h204V360H81v320H2v98z"/><glyph unicode="º" glyph-name="ordmasculine" horiz-adv-x="414" d="M292 786l51-45 51-121q0-75-51-120t-137-46q-84 0-135 45T20 620q0 76 51 121t135 45q86 0 137-45zm-115-94l-17-20-18-54q0-32 17-52t47-20q29 0 47 20t18 52q0 34-18 54t-47 20q-29 0-46-20z"/><glyph unicode="»" glyph-name="guillemotright" horiz-adv-x="511" d="M160 82H16l107 185L16 453h144l121-186L160 82zm225 0H241l107 185-107 186h144l121-186L385 82z"/><glyph unicode="¼" glyph-name="onequarter" horiz-adv-x="844" d="M2 701h204V283H81v320H2v98zm573 0h123L200 0H76l499 701zm21-283h120L590 174h79v86h117v-86h58V86h-58V0H669v86H463v81l133 251z"/><glyph unicode="½" glyph-name="onehalf" horiz-adv-x="885" d="M2 701h204V283H81v320H2v98zm573 0h123L200 0H76l499 701zm143-431v24q0 14-11 22t-30 8q-25 0-56-14t-62-40l-48 88q94 65 186 65 66 0 109-30t43-81q0-34-22-68t-62-73l-80-77h174V0H526v77l154 155q38 38 38 62z"/><glyph unicode="¾" glyph-name="threequarters" horiz-adv-x="922" d="M292 522l28-29 28-77q0-61-46-99t-124-38q-47 0-92 14T9 332l51 93q48-55 108-55 28 0 42 11t15 34q0 45-58 45H94v64l92 88H31v88h297v-69l-103-96 20-4q47-9 75-38zm361 179h123L278 0H154l499 701zm21-283h120L668 174h79v86h117v-86h58V86h-58V0H747v86H541v81l133 251z"/><glyph unicode="¿" glyph-name="questiondown" horiz-adv-x="474" d="M209 375l-24 24-24 62q0 38 24 62t62 25q37 0 61-24t24-63q0-38-23-62t-62-24q-38 0-62 24zM451-42l-60-61-169-61q-101 0-159 46T5 11q0 53 24 88t70 75q40 36 59 62t19 64h133q0-40-11-70t-28-49-43-45q-29-27-43-47t-14-49q0-61 68-61 75 0 76 89l137-1q-1-109-61-170z"/><glyph unicode="À" glyph-name="Agrave" horiz-adv-x="773" d="M583 0l-48 124H232L183 0H-5l301 701h188L778 0H583zM287 264h194l-96 250-98-250zm76 658l106-161-123-10-131 115 148 56z"/><glyph unicode="Á" glyph-name="Aacute" horiz-adv-x="773" d="M583 0l-48 124H232L183 0H-5l301 701h188L778 0H583zM287 264h194l-96 250-98-250zm130 658l147-56-145-115-122 10 120 161z"/><glyph unicode="Â" glyph-name="Acircumflex" horiz-adv-x="773" d="M583 0l-48 124H232L183 0H-5l301 701h188L778 0H583zM287 264h194l-96 250-98-250zm288 493H447l-59 67-60-67H200l109 153h157l109-153z"/><glyph unicode="Ã" glyph-name="Atilde" horiz-adv-x="773" d="M583 0l-48 124H232L183 0H-5l301 701h188L778 0H583zM287 264h194l-96 250-98-250zm284 570l-23-40-74-40q-24 0-44 7t-47 22q-28 16-42 16-28 0-28-42H212q0 78 23 118t75 41q23 0 44-8t46-21q30-16 42-16 29 0 29 41h100q0-78-23-118z"/><glyph unicode="Ä" glyph-name="Adieresis" horiz-adv-x="773" d="M583 0l-48 124H232L183 0H-5l301 701h188L778 0H583zM287 264h194l-96 250-98-250zm38 645l21-21 22-56q0-33-21-55t-55-22q-34 0-55 22t-22 55q0 34 21 55t56 22q33 0 54-21zm192 0l21-21 22-56q0-33-21-55t-55-22q-34 0-55 22t-22 55q0 34 21 55t56 22q33 0 54-21z"/><glyph unicode="Å" glyph-name="Aring" horiz-adv-x="773" d="M583 0l-48 124H232L183 0H-5l301 701h188L778 0H583zM287 264h194l-96 250-98-250zm149 711l34-34 35-84q0-49-34-83t-84-35q-49 0-83 34t-35 84q0 49 34 83t84 35q49 0 83-34zm-68-74l-13-13-13-31q0-18 13-30t32-13q19 0 32 12t13 31q0 18-13 31t-32 13q-19 0-32-13z"/><glyph unicode="Æ" glyph-name="AE" horiz-adv-x="1106" d="M682 146h380V0H499v144H261L185 0H-5l397 701h660V555H682V424h334V279H682V146zM331 278h168v280h-20L331 278z"/><glyph unicode="Ç" glyph-name="Ccedilla" horiz-adv-x="692" d="M633 66l-67-34-138-43-16-45q42-9 62-30t20-51q0-48-36-72t-92-25q-55 0-110 20l28 80q23-9 51-9 18 0 29 6t11 16q0 11-15 17t-38 6h-24l29 90Q239 6 170 56T62 183 23 352q0 102 49 184t134 129 192 47q78 0 154-32t129-89L575 463q-34 43-81 68t-93 26q-53 0-96-26t-69-73-25-104q0-57 25-103t68-73 97-27q43 0 90 22t84 60l107-115q-49-52-116-86z"/><glyph unicode="È" glyph-name="Egrave" horiz-adv-x="675" d="M68 701h553V555H251V424h334V279l-334-1V146h380V0H68v701zm257 221l106-161-123-10-131 115 148 56z"/><glyph unicode="É" glyph-name="Eacute" horiz-adv-x="675" d="M68 701h553V555H251V424h334V279l-334-1V146h380V0H68v701zm311 221l147-56-145-115-122 10 120 161z"/><glyph unicode="Ê" glyph-name="Ecircumflex" horiz-adv-x="675" d="M68 701h553V555H251V424h334V279l-334-1V146h380V0H68v701zm469 56H409l-59 67-60-67H162l109 153h157l109-153z"/><glyph unicode="Ë" glyph-name="Edieresis" horiz-adv-x="675" d="M68 701h553V555H251V424h334V279l-334-1V146h380V0H68v701zm219 208l21-21 22-56q0-33-21-55t-55-22q-34 0-55 22t-22 55q0 34 21 55t56 22q33 0 54-21zm192 0l21-21 22-56q0-33-21-55t-55-22q-34 0-55 22t-22 55q0 34 21 55t56 22q33 0 54-21z"/><glyph unicode="Ì" glyph-name="Igrave" horiz-adv-x="319" d="M68 701h183V0H68v701zm68 221l106-161-123-10-131 115 148 56z"/><glyph unicode="Í" glyph-name="Iacute" horiz-adv-x="319" d="M68 701h183V0H68v701zm122 221l147-56-145-115-122 10 120 161z"/><glyph unicode="Î" glyph-name="Icircumflex" horiz-adv-x="319" d="M68 701h183V0H68v701zm280 56H220l-59 67-60-67H-27L82 910h157l109-153z"/><glyph unicode="Ï" glyph-name="Idieresis" horiz-adv-x="319" d="M68 701h183V0H68v701zm30 208l21-21 22-56q0-33-21-55t-55-22q-34 0-55 22t-22 55q0 34 21 55t56 22q33 0 54-21zm192 0l21-21 22-56q0-33-21-55t-55-22q-34 0-55 22t-22 55q0 34 21 55t56 22q33 0 54-21z"/><glyph unicode="Ð" glyph-name="Eth" horiz-adv-x="766" d="M480 701l84-44 132-123 47-183q0-103-47-183T562 44 363 0H68v308H2v85h66v308h302q110 0 194-44zm-52-553l41 25 64 71 23 105q0 60-24 106t-68 71-98 26H251V393h161v-85H251V148h124q53 0 94 25z"/><glyph unicode="Ñ" glyph-name="Ntilde" horiz-adv-x="786" d="M547 701h170V0H557L239 419V0H68v701h161l319-422-1 422zm34 133l-23-40-74-40q-24 0-44 7t-47 22q-28 16-42 16-28 0-28-42H222q0 78 23 118t75 41q23 0 44-8t46-21q30-16 42-16 29 0 29 41h100q0-78-23-118z"/><glyph unicode="Ò" glyph-name="Ograve" horiz-adv-x="804" d="M509 712l86-47 136-129 50-184q0-103-49-186T596 35 402-13q-107 0-193 47T73 165 23 352q0 102 49 184t136 129 194 47q107 0 193-47zM352 557l-44-27-71-74-26-105q0-58 26-105t71-75 96-28q52 0 95 27t69 75 25 106q0 57-25 104t-68 75-96 27q-52 0-96-27zm26 365l106-161-123-10-131 115 148 56z"/><glyph unicode="Ó" glyph-name="Oacute" horiz-adv-x="804" d="M509 712l86-47 136-129 50-184q0-103-49-186T596 35 402-13q-107 0-193 47T73 165 23 352q0 102 49 184t136 129 194 47q107 0 193-47zM352 557l-44-27-71-74-26-105q0-58 26-105t71-75 96-28q52 0 95 27t69 75 25 106q0 57-25 104t-68 75-96 27q-52 0-96-27zm80 365l147-56-145-115-122 10 120 161z"/><glyph unicode="Ô" glyph-name="Ocircumflex" horiz-adv-x="804" d="M509 712l86-47 136-129 50-184q0-103-49-186T596 35 402-13q-107 0-193 47T73 165 23 352q0 102 49 184t136 129 194 47q107 0 193-47zM352 557l-44-27-71-74-26-105q0-58 26-105t71-75 96-28q52 0 95 27t69 75 25 106q0 57-25 104t-68 75-96 27q-52 0-96-27zm238 200H462l-59 67-60-67H215l109 153h157l109-153z"/><glyph unicode="Õ" glyph-name="Otilde" horiz-adv-x="804" d="M509 712l86-47 136-129 50-184q0-103-49-186T596 35 402-13q-107 0-193 47T73 165 23 352q0 102 49 184t136 129 194 47q107 0 193-47zM352 557l-44-27-71-74-26-105q0-58 26-105t71-75 96-28q52 0 95 27t69 75 25 106q0 57-25 104t-68 75-96 27q-52 0-96-27zm234 277l-23-40-74-40q-24 0-44 7t-47 22q-28 16-42 16-28 0-28-42H227q0 78 23 118t75 41q23 0 44-8t46-21q30-16 42-16 29 0 29 41h100q0-78-23-118z"/><glyph unicode="Ö" glyph-name="Odieresis" horiz-adv-x="804" d="M509 712l86-47 136-129 50-184q0-103-49-186T596 35 402-13q-107 0-193 47T73 165 23 352q0 102 49 184t136 129 194 47q107 0 193-47zM352 557l-44-27-71-74-26-105q0-58 26-105t71-75 96-28q52 0 95 27t69 75 25 106q0 57-25 104t-68 75-96 27q-52 0-96-27zm-12 352l21-21 22-56q0-33-21-55t-55-22q-34 0-55 22t-22 55q0 34 21 55t56 22q33 0 54-21zm192 0l21-21 22-56q0-33-21-55t-55-22q-34 0-55 22t-22 55q0 34 21 55t56 22q33 0 54-21z"/><glyph unicode="×" glyph-name="multiply" horiz-adv-x="511" d="M453 445L336 327l117-117-80-81-117 118-118-118-80 81 117 117L58 445l80 80 118-117 117 117 80-80z"/><glyph unicode="Ø" glyph-name="Oslash" horiz-adv-x="804" d="M704 584l38-74 39-162q0-101-49-182T596 37 402-10q-80 0-149 26l-44-71H94l73 118Q99 112 61 186T23 348q0 101 49 182t136 128 194 46q76 0 146-25l47 76h116l-76-122q69-49 107-123zM211 309l13-34 36-62 201 326q-27 9-57 9-52 0-96-26t-71-72-26-102q0-39 13-73zm245-164l43 27 68 73 26 103q0 79-50 137L340 156q31-11 64-11 52 0 95 27z"/><glyph unicode="Ù" glyph-name="Ugrave" horiz-adv-x="749" d="M239 223l39-40 99-40q59 0 95 39t37 107v412h183V289q0-91-38-159T544 24 376-13q-96 0-168 37T96 129 56 289v412h183V289q0-66 39-106zm112 699l106-161-123-10-131 115 148 56z"/><glyph unicode="Ú" glyph-name="Uacute" horiz-adv-x="749" d="M239 223l39-40 99-40q59 0 95 39t37 107v412h183V289q0-91-38-159T544 24 376-13q-96 0-168 37T96 129 56 289v412h183V289q0-66 39-106zm166 699l147-56-145-115-122 10 120 161z"/><glyph unicode="Û" glyph-name="Ucircumflex" horiz-adv-x="749" d="M239 223l39-40 99-40q59 0 95 39t37 107v412h183V289q0-91-38-159T544 24 376-13q-96 0-168 37T96 129 56 289v412h183V289q0-66 39-106zm324 534H435l-59 67-60-67H188l109 153h157l109-153z"/><glyph unicode="Ü" glyph-name="Udieresis" horiz-adv-x="749" d="M239 223l39-40 99-40q59 0 95 39t37 107v412h183V289q0-91-38-159T544 24 376-13q-96 0-168 37T96 129 56 289v412h183V289q0-66 39-106zm74 686l21-21 22-56q0-33-21-55t-55-22q-34 0-55 22t-22 55q0 34 21 55t56 22q33 0 54-21zm192 0l21-21 22-56q0-33-21-55t-55-22q-34 0-55 22t-22 55q0 34 21 55t56 22q33 0 54-21z"/><glyph unicode="Ý" glyph-name="Yacute" horiz-adv-x="684" d="M689 701L436 224V0H253v219L-5 701h183l166-301 162 301h183zM372 922l147-56-145-115-122 10 120 161z"/><glyph unicode="Þ" glyph-name="Thorn" horiz-adv-x="689" d="M509 609l79-64 79-178q0-119-78-187t-218-69H251V0H68v701h183v-92h120q138 0 217-64zm-90-356l30 28 31 81q0 50-30 77t-87 28H251V253h112q56 0 86 28z"/><glyph unicode="ß" glyph-name="germandbls" horiz-adv-x="663" d="M56 570l33 58 94 90 145 32q78 0 137-25t91-70 33-105q0-52-25-97t-69-70q61-17 98-62t38-107q0-64-34-112t-98-75T352 0h-49v128h39q56 0 86 23t31 65q0 42-33 64t-94 22h-19v127q50 0 77 24t27 70q0 45-22 68t-65 24q-46 0-71-28t-25-81V0H56v492q0 78 33 136z"/><glyph unicode="à" glyph-name="agrave" horiz-adv-x="601" d="M424 548l62-51 63-145V0H374v61Q320-8 211-8 125-8 76 38T26 161q0 77 53 120t154 44h141v6q0 39-26 60t-77 21q-34 0-76-11t-86-32L60 489q66 30 126 44t126 15q112 0 174-51zM306 113l30 19 38 51v47H268q-75 0-75-56 0-28 19-44t54-17q40 0 70 19zm-31 657l106-161-123-10-131 115 148 56z"/><glyph unicode="á" glyph-name="aacute" horiz-adv-x="601" d="M424 548l62-51 63-145V0H374v61Q320-8 211-8 125-8 76 38T26 161q0 77 53 120t154 44h141v6q0 39-26 60t-77 21q-34 0-76-11t-86-32L60 489q66 30 126 44t126 15q112 0 174-51zM306 113l30 19 38 51v47H268q-75 0-75-56 0-28 19-44t54-17q40 0 70 19zm24 657l147-56-145-115-122 10 120 161z"/><glyph unicode="â" glyph-name="acircumflex" horiz-adv-x="601" d="M424 548l62-51 63-145V0H374v61Q320-8 211-8 125-8 76 38T26 161q0 77 53 120t154 44h141v6q0 39-26 60t-77 21q-34 0-76-11t-86-32L60 489q66 30 126 44t126 15q112 0 174-51zM306 113l30 19 38 51v47H268q-75 0-75-56 0-28 19-44t54-17q40 0 70 19zm181 497H359l-59 67-60-67H112l109 153h157l109-153z"/><glyph unicode="ã" glyph-name="atilde" horiz-adv-x="601" d="M424 548l62-51 63-145V0H374v61Q320-8 211-8 125-8 76 38T26 161q0 77 53 120t154 44h141v6q0 39-26 60t-77 21q-34 0-76-11t-86-32L60 489q66 30 126 44t126 15q112 0 174-51zM306 113l30 19 38 51v47H268q-75 0-75-56 0-28 19-44t54-17q40 0 70 19zm178 565l-23-40-74-40q-24 0-44 7t-47 22q-28 16-42 16-28 0-28-42H125q0 78 23 118t75 41q23 0 44-8t46-21q30-16 42-16 29 0 29 41h100q0-78-23-118z"/><glyph unicode="ä" glyph-name="adieresis" horiz-adv-x="601" d="M424 548l62-51 63-145V0H374v61Q320-8 211-8 125-8 76 38T26 161q0 77 53 120t154 44h141v6q0 39-26 60t-77 21q-34 0-76-11t-86-32L60 489q66 30 126 44t126 15q112 0 174-51zM306 113l30 19 38 51v47H268q-75 0-75-56 0-28 19-44t54-17q40 0 70 19zm-69 653l21-22 22-56q0-33-21-54t-55-22q-33 0-54 21t-22 55q0 34 21 56t55 22q33 0 54-22zm192 0l21-22 22-56q0-33-21-54t-55-22q-34 0-55 21t-21 55q0 35 21 56t55 22q33 0 54-22z"/><glyph unicode="å" glyph-name="aring" horiz-adv-x="601" d="M424 548l62-51 63-145V0H374v61Q320-8 211-8 125-8 76 38T26 161q0 77 53 120t154 44h141v6q0 39-26 60t-77 21q-34 0-76-11t-86-32L60 489q66 30 126 44t126 15q112 0 174-51zM306 113l30 19 38 51v47H268q-75 0-75-56 0-28 19-44t54-17q40 0 70 19zm43 702l34-34 35-84q0-49-34-83t-84-35q-49 0-83 34t-35 84q0 49 34 83t84 35q49 0 83-34zm-68-74l-13-13-13-31q0-18 13-30t32-13q19 0 32 12t13 31q0 18-13 31t-32 13q-19 0-32-13z"/><glyph unicode="æ" glyph-name="ae" horiz-adv-x="965" d="M564 181l35-26 83-27q35 0 68 14t60 41l93-93q-42-47-102-71T666-6q-76 0-133 28t-89 83q-32-55-88-84T223-9Q132-9 79 37T26 159q0 77 53 117t155 43h142v19q-2 36-29 55t-75 19q-36 0-80-11t-91-32L60 490q134 58 253 58t180-59q66 58 169 58 89 0 154-39t97-110 29-167H558l1-10q5-40 40-66zm200 183l-28 30-73 31q-43 0-71-29t-37-79h209q0 47-28 77zM233 233l-20-15-20-44q0-30 20-47t54-18q36 0 64 16t46 48l-1 60H271q-38 0-58-15z"/><glyph unicode="ç" glyph-name="ccedilla" horiz-adv-x="562" d="M520 70l-51-33L347-3l-19-53q42-9 62-30t20-51q0-48-36-72t-92-25q-55 0-110 20l28 80q23-9 51-9 18 0 29 6t11 16q0 11-15 17t-38 6h-24l32 96Q144 15 84 87T24 268q0 83 35 146t98 98 147 35q81 0 144-33t98-95l-129-75q-38 56-106 56-48 0-78-36t-30-95q0-59 30-95t78-36q74 0 106 61l131-75q-28-54-79-87z"/><glyph unicode="è" glyph-name="egrave" horiz-adv-x="603" d="M438 547l71-78 71-214q0-21-1-32H203q13-46 45-70t78-25q35 0 67 14t60 41l93-93q-42-47-101-71T310-6q-87 0-152 34t-99 96-35 144q0 83 35 146t99 98 148 35q132 0 203-78zm-31-229q0 47-27 75t-73 29q-42 0-70-28t-38-76h208zM276 770l106-161-123-10-131 115 148 56z"/><glyph unicode="é" glyph-name="eacute" horiz-adv-x="603" d="M438 547l71-78 71-214q0-21-1-32H203q13-46 45-70t78-25q35 0 67 14t60 41l93-93q-42-47-101-71T310-6q-87 0-152 34t-99 96-35 144q0 83 35 146t99 98 148 35q132 0 203-78zm-31-229q0 47-27 75t-73 29q-42 0-70-28t-38-76h208zm-76 452l147-56-145-115-122 10 120 161z"/><glyph unicode="ê" glyph-name="ecircumflex" horiz-adv-x="603" d="M438 547l71-78 71-214q0-21-1-32H203q13-46 45-70t78-25q35 0 67 14t60 41l93-93q-42-47-101-71T310-6q-87 0-152 34t-99 96-35 144q0 83 35 146t99 98 148 35q132 0 203-78zm-31-229q0 47-27 75t-73 29q-42 0-70-28t-38-76h208zm81 292H360l-59 67-60-67H113l109 153h157l109-153z"/><glyph unicode="ë" glyph-name="edieresis" horiz-adv-x="603" d="M438 547l71-78 71-214q0-21-1-32H203q13-46 45-70t78-25q35 0 67 14t60 41l93-93q-42-47-101-71T310-6q-87 0-152 34t-99 96-35 144q0 83 35 146t99 98 148 35q132 0 203-78zm-31-229q0 47-27 75t-73 29q-42 0-70-28t-38-76h208zM238 766l21-22 22-56q0-33-21-54t-55-22q-33 0-54 21t-22 55q0 34 21 56t55 22q33 0 54-22zm192 0l21-22 22-56q0-33-21-54t-55-22q-34 0-55 21t-21 55q0 35 21 56t55 22q33 0 54-22z"/><glyph unicode="ì" glyph-name="igrave" horiz-adv-x="313" d="M68 541h177V0H68v541zm64 229l106-161-123-10-131 115 148 56z"/><glyph unicode="í" glyph-name="iacute" horiz-adv-x="313" d="M68 541h177V0H68v541zm119 229l147-56-145-115-122 10 120 161z"/><glyph unicode="î" glyph-name="icircumflex" horiz-adv-x="313" d="M68 541h177V0H68v541zm276 69H216l-59 67-60-67H-31L78 763h157l109-153z"/><glyph unicode="ï" glyph-name="idieresis" horiz-adv-x="313" d="M68 541h177V0H68v541zm31 225l21-21 21-56q0-34-21-56t-55-22q-33 0-54 22t-22 56q0 34 21 55t55 22q34 0 55-21zm183 0l21-21 22-56q0-34-21-56t-55-22q-34 0-55 22t-22 56q0 34 21 55t56 22q33 0 54-21z"/><glyph unicode="ð" glyph-name="eth" horiz-adv-x="605" d="M502 550l40-85 40-178q0-89-37-156T441 28 283-9q-79 0-138 29t-91 82-33 124q0 66 28 116t79 77 120 27q48 0 91-15t68-42q-4 44-32 88t-76 84l-177-81-33 68 139 64q-61 38-127 64l119 74q76-29 143-76l141 65 33-70-108-49q73-70 113-155zM337 141l27 25 28 67q0 42-28 67t-74 26q-46 0-72-25t-27-66q0-43 27-68t73-26q46 0 73 25z"/><glyph unicode="ñ" glyph-name="ntilde" horiz-adv-x="674" d="M514 548l53-56 54-151V0H444v290q0 46-25 72t-67 27q-44-1-72-29t-34-74V0H68v541h178v-88q29 47 74 71t105 24q89 0 142-56zm24 130l-23-40-74-40q-24 0-44 7t-47 22q-28 16-42 16-28 0-28-42H179q0 78 23 118t75 41q23 0 44-8t46-21q30-16 42-16 29 0 29 41h100q0-78-23-118z"/><glyph unicode="ò" glyph-name="ograve" horiz-adv-x="638" d="M407 547l67-34 104-97 37-145q0-83-37-145T474 29 319-6q-88 0-155 34T61 125 24 271q0 82 36 144t104 97 155 35q88 0 155-34zM267 403l-32-37-32-97q0-61 32-98t84-37q53 0 85 37t32 98q0 60-32 97t-85 37q-52 0-84-37zm27 367l106-161-123-10-131 115 148 56z"/><glyph unicode="ó" glyph-name="oacute" horiz-adv-x="638" d="M407 547l67-34 104-97 37-145q0-83-37-145T474 29 319-6q-88 0-155 34T61 125 24 271q0 82 36 144t104 97 155 35q88 0 155-34zM267 403l-32-37-32-97q0-61 32-98t84-37q53 0 85 37t32 98q0 60-32 97t-85 37q-52 0-84-37zm82 367l147-56-145-115-122 10 120 161z"/><glyph unicode="ô" glyph-name="ocircumflex" horiz-adv-x="638" d="M407 547l67-34 104-97 37-145q0-83-37-145T474 29 319-6q-88 0-155 34T61 125 24 271q0 82 36 144t104 97 155 35q88 0 155-34zM267 403l-32-37-32-97q0-61 32-98t84-37q53 0 85 37t32 98q0 60-32 97t-85 37q-52 0-84-37zm239 207H378l-59 67-60-67H131l109 153h157l109-153z"/><glyph unicode="õ" glyph-name="otilde" horiz-adv-x="638" d="M407 547l67-34 104-97 37-145q0-83-37-145T474 29 319-6q-88 0-155 34T61 125 24 271q0 82 36 144t104 97 155 35q88 0 155-34zM267 403l-32-37-32-97q0-61 32-98t84-37q53 0 85 37t32 98q0 60-32 97t-85 37q-52 0-84-37zm236 275l-23-40-74-40q-24 0-44 7t-47 22q-28 16-42 16-28 0-28-42H144q0 78 23 118t75 41q23 0 44-8t46-21q30-16 42-16 29 0 29 41h100q0-78-23-118z"/><glyph unicode="ö" glyph-name="odieresis" horiz-adv-x="638" d="M407 547l67-34 104-97 37-145q0-83-37-145T474 29 319-6q-88 0-155 34T61 125 24 271q0 82 36 144t104 97 155 35q88 0 155-34zM267 403l-32-37-32-97q0-61 32-98t84-37q53 0 85 37t32 98q0 60-32 97t-85 37q-52 0-84-37zm-11 363l21-22 22-56q0-33-21-54t-55-22q-33 0-54 21t-22 55q0 34 21 56t55 22q33 0 54-22zm192 0l21-22 22-56q0-33-21-54t-55-22q-34 0-55 21t-21 55q0 35 21 56t55 22q33 0 54-22z"/><glyph unicode="÷" glyph-name="divide" horiz-adv-x="511" d="M290 589l22-22 22-58q0-35-22-57t-57-23q-35 0-57 22t-23 58q0 35 22 57t58 23q35 0 57-22zM32 384h446V270H32v114zm258-153l22-22 22-58q0-35-22-57t-57-23q-35 0-57 22t-23 58q0 35 22 57t58 23q35 0 57-22z"/><glyph unicode="ø" glyph-name="oslash" horiz-adv-x="638" d="M561 453l27-56 27-126q0-83-37-145T474 29 319-6q-70 0-128 22L121-86H36l93 136q-51 36-78 93T24 271q0 82 36 144t104 97 155 35q73 0 132-24l70 104h85l-94-138q49-36 76-92zM191 213l24-36 156 230q-24 11-52 11-57 0-92-41t-36-108q0-56 24-92zm185-94l35 41 36 109q0 53-23 91L268 129q25-10 51-10 57 0 92 41z"/><glyph unicode="ù" glyph-name="ugrave" horiz-adv-x="664" d="M596 541V0H418v88Q363-6 245-8q-88 0-140 56T52 199v342h178V250q0-46 23-72t64-26q47 1 74 34t27 88v267h178zM307 770l106-161-123-10-131 115 148 56z"/><glyph unicode="ú" glyph-name="uacute" horiz-adv-x="664" d="M596 541V0H418v88Q363-6 245-8q-88 0-140 56T52 199v342h178V250q0-46 23-72t64-26q47 1 74 34t27 88v267h178zM362 770l147-56-145-115-122 10 120 161z"/><glyph unicode="û" glyph-name="ucircumflex" horiz-adv-x="664" d="M596 541V0H418v88Q363-6 245-8q-88 0-140 56T52 199v342h178V250q0-46 23-72t64-26q47 1 74 34t27 88v267h178zm-77 69H391l-59 67-60-67H144l109 153h157l109-153z"/><glyph unicode="ü" glyph-name="udieresis" horiz-adv-x="664" d="M596 541V0H418v88Q363-6 245-8q-88 0-140 56T52 199v342h178V250q0-46 23-72t64-26q47 1 74 34t27 88v267h178zM269 766l21-22 22-56q0-33-21-54t-55-22q-33 0-54 21t-22 55q0 34 21 56t55 22q33 0 54-22zm192 0l21-22 22-56q0-33-21-54t-55-22q-34 0-55 21t-21 55q0 35 21 56t55 22q33 0 54-22z"/><glyph unicode="ý" glyph-name="yacute" horiz-adv-x="584" d="M329-129l-52-36-129-37q-45 0-84 13t-76 43L62-23q19-16 36-23t36-7q44 0 65 41l13 25-224 528h183l129-352 115 352h177L360-53q-31-76-83-112zm-6 899l147-56-145-115-122 10 120 161z"/><glyph unicode="þ" glyph-name="thorn" horiz-adv-x="686" d="M278 508l40 19 92 20q75 0 132-34t88-98 32-147q0-82-30-144t-87-96T414-6q-52 0-93 19t-70 57v-264H73v936h178V471q27 37 67 56zm37-101l-32-37-32-98q0-60 32-97t83-37q52 0 84 37t33 97q0 60-32 97t-85 38q-51 0-83-37z"/><glyph unicode="ÿ" glyph-name="ydieresis" horiz-adv-x="584" d="M329-129l-52-36-129-37q-45 0-84 13t-76 43L62-23q19-16 36-23t36-7q44 0 65 41l13 25-224 528h183l129-352 115 352h177L360-53q-31-76-83-112zm-99 895l21-22 22-56q0-33-21-54t-55-22q-33 0-54 21t-22 55q0 34 21 56t55 22q33 0 54-22zm192 0l21-22 22-56q0-33-21-54t-55-22q-34 0-55 21t-21 55q0 35 21 56t55 22q33 0 54-22z"/><glyph unicode="–" glyph-name="endash" horiz-adv-x="408" d="M0 364h408V250H0v114z"/><glyph unicode="—" glyph-name="emdash" horiz-adv-x="645" d="M0 364h645V250H0v114z"/><glyph unicode="‘" glyph-name="quoteleft" horiz-adv-x="243" d="M190 585v-44q0-37-24-61t-61-24q-36 0-60 22t-25 63q0 30 23 68l80 133h85l-52-133q34-24 34-68z"/><glyph unicode="’" glyph-name="quoteright" horiz-adv-x="243" d="M159 742l24-22 25-63q0-30-23-68l-80-133H20l52 133q-34 24-34 68 0 37 24 61t61 24q36 0 60-22z"/><glyph unicode="‚" glyph-name="quotesinglbase" horiz-adv-x="243" d="M159 164l24-22 25-63q0-30-23-68l-80-133H20L72 11Q38 35 38 79q0 37 24 61t61 24q36 0 60-22z"/><glyph unicode="“" glyph-name="quotedblleft" horiz-adv-x="432" d="M190 585v-44q0-37-24-61t-61-24q-36 0-60 22t-25 63q0 30 23 68l80 133h85l-52-133q34-24 34-68zm188 0v-44q0-37-24-61t-61-24q-36 0-60 22t-25 63q0 30 23 68l80 133h85l-52-133q34-24 34-68z"/><glyph unicode="”" glyph-name="quotedblright" horiz-adv-x="432" d="M159 742l24-22 25-63q0-30-23-68l-80-133H20l52 133q-34 24-34 68 0 37 24 61t61 24q36 0 60-22zm188 0l24-22 25-63q0-30-23-68l-80-133h-85l52 133q-34 24-34 68 0 37 24 61t61 24q36 0 60-22z"/><glyph unicode="„" glyph-name="quotedblbase" horiz-adv-x="432" d="M159 164l24-22 25-63q0-30-23-68l-80-133H20L72 11Q38 35 38 79q0 37 24 61t61 24q36 0 60-22zm188 0l24-22 25-63q0-30-23-68l-80-133h-85l52 133q-34 24-34 68 0 37 24 61t61 24q36 0 60-22z"/><glyph unicode="•" glyph-name="bullet" horiz-adv-x="331" d="M222 407l36-36 36-94q0-58-36-94t-93-37q-56 0-92 36t-36 95q0 57 36 93t92 37q57 0 93-36z"/><glyph unicode="‹" glyph-name="guilsinglleft" horiz-adv-x="281" d="M121 452h144L158 267 265 81H121L0 267l121 185z"/><glyph unicode="›" glyph-name="guilsinglright" horiz-adv-x="281" d="M160 82H16l107 185L16 453h144l121-186L160 82z"/></font>
</defs>
</svg>
