<?xml version="1.0" standalone="no"?>
<!DOCTYPE svg PUBLIC "-//W3C//DTD SVG 1.1//EN" "http://www.w3.org/Graphics/SVG/1.1/DTD/svg11.dtd">
<svg xmlns="http://www.w3.org/2000/svg">
<defs >
<font id="Montserrat" horiz-adv-x="625" ><font-face
    font-family="Montserrat ExtraBold"
    units-per-em="1000"
    panose-1="0 0 9 0 0 0 0 0 0 0"
    ascent="968"
    descent="-251"
    alphabetic="0" />
<glyph unicode=" " glyph-name="space" horiz-adv-x="211" />
<glyph unicode="!" glyph-name="exclam" horiz-adv-x="276" d="M45 699H237V517L202 250H81L45 517V699ZM179 180T205 154T232 87Q232 45 206 19T137 -8Q96 -8 70 18T43 87Q43 128 69 154T137 180Q179 180 205 154Z" />
<glyph unicode="&quot;" glyph-name="quotedbl" horiz-adv-x="478" d="M60 701H211V411H60V701ZM267 701H418V411H267V701Z" />
<glyph unicode="#" glyph-name="numbersign" horiz-adv-x="741" d="M716 409H583L567 284H699L682 146H550L532 0H387L405 146H285L267 0H123L141 146H9L26 284H158L174 409H43L58 547H191L210 701H354L335 547H455L474 701H619L600 547H732L716 409ZM422 284L438
409H318L302 284H422Z" />
<glyph unicode="$" glyph-name="dollar" horiz-adv-x="655" d="M272 485T302 470T397 436Q471 415 519 394T602 328T638 212Q638 119 577 63T415 -7V-160H266V-5Q195 6 129 33T12 102L90 260Q143 214 219 183T351 151Q385 151 404 164T423 201Q423 230 392 245T296
278Q223 297 175 317T92 381T57 494Q57 579 112 636T266 710V857H415V713Q478 705 536 685T640 635L563 475Q507 508 440 531T330 554Q303 554 288 544T272 513Q272 485 302 470Z" />
<glyph unicode="%" glyph-name="percent" horiz-adv-x="1005" d="M310 704T364 646T418 491Q418 393 364 335T218 277Q126 277 72 335T17 491Q17 588 71 646T218 704Q310 704 364 646ZM184 597T165 569T145 491Q145 442 164 413T218 384Q252 384 271 413T291 491Q291
540 272 568T218 597Q184 597 165 569ZM680 701H816L324 0H187L680 701ZM880 423T934 365T988 210Q988 112 934 54T788 -4Q696 -4 642 54T587 210Q587 307 641 365T788 423Q880 423 934 365ZM754 316T735 288T715 210Q715 161 734 132T788 103Q822 103 841 132T861
210Q861 259 842 287T788 316Q754 316 735 288Z" />
<glyph unicode="&amp;" glyph-name="ampersand" horiz-adv-x="697" d="M588 -35L494 55Q405 -9 301 -9Q230 -9 174 17T86 91T54 198Q54 261 89 304T187 382Q158 425 145 461T132 535Q132 615 188 662T341 710Q402 710 450 689T526 631T553 547Q553 481 510 438T392
355Q442 301 482 261Q508 309 523 365L650 274Q625 207 590 156Q625 124 690 63L588 -35ZM289 496T318 450Q355 472 375 494T395 545Q395 569 381 583T343 597Q318 597 304 580T289 536Q289 496 318 450ZM350 131T391 156Q310 237 265 286Q218 254 218 213Q218
176 243 154T309 131Q350 131 391 156Z" />
<glyph unicode="&apos;" glyph-name="quotesingle" horiz-adv-x="271" d="M60 701H211V411H60V701Z" />
<glyph unicode="(" glyph-name="parenleft" horiz-adv-x="358" d="M306 649T274 538T241 309Q241 192 273 81T363 -124H183Q119 -35 86 76T52 309Q52 430 85 541T183 742H363Q306 649 274 538Z" />
<glyph unicode=")" glyph-name="parenright" horiz-adv-x="358" d="M175 742Q239 653 272 542T306 309Q306 188 273 77T175 -124H-5Q52 -31 84 80T117 309Q117 426 85 537T-5 742H175Z" />
<glyph unicode="*" glyph-name="asterisk" horiz-adv-x="394" d="M147 719H247L245 627L323 674L373 588L291 545L373 500L323 413L244 461L247 370H147L150 462L71 415L21 500L102 545L21 588L71 676L149 627L147 719Z" />
<glyph unicode="+" glyph-name="plus" horiz-adv-x="515" d="M484 391V265H321V101H195V265H31V391H195V555H321V391H484Z" />
<glyph unicode="," glyph-name="comma" horiz-adv-x="254" d="M168 180T195 155T222 87Q222 52 197 13L109 -126H14L71 14Q53 26 44 45T34 86Q34 127 61 153T129 180Q168 180 195 155Z" />
<glyph unicode="-" glyph-name="hyphen" horiz-adv-x="377" d="M52 371H325V245H52V371Z" />
<glyph unicode="." glyph-name="period" horiz-adv-x="255" d="M169 180T195 154T222 87Q222 45 196 19T127 -8Q86 -8 60 18T33 87Q33 128 59 154T127 180Q169 180 195 154Z" />
<glyph unicode="/" glyph-name="slash" horiz-adv-x="364" d="M283 808H452L125 -107H-44L283 808Z" />
<glyph unicode="0" glyph-name="zero" horiz-adv-x="701" d="M504 707T586 615T668 351Q668 179 586 86T352 -7Q198 -7 117 85T35 351Q35 523 116 615T352 707Q504 707 586 615ZM296 556T272 510T248 351Q248 239 272 192T352 145Q407 145 430 192T454 351Q454
463 431 509T352 556Q296 556 272 510Z" />
<glyph unicode="1" glyph-name="one" horiz-adv-x="415" d="M-22 701H314V0H106V535H-22V701Z" />
<glyph unicode="2" glyph-name="two" horiz-adv-x="613" d="M580 162V0H38L37 133L287 391Q314 418 330 445T347 493Q347 517 331 529T284 542Q243 542 193 519T91 453L13 603Q169 710 315 710Q387 710 443 687T532 621T565 524Q565 469 530 412T428 288L302 162H580Z" />
<glyph unicode="3" glyph-name="three" horiz-adv-x="609" d="M485 401T533 351T582 222Q582 154 547 102T446 20T293 -9Q215 -9 138 15T9 80L84 222Q129 185 178 166T277 146Q326 146 352 165T378 221Q378 257 352 276T276 296H151V405L301 549H46V702H548V583L370
423L405 416Q485 401 533 351Z" />
<glyph unicode="4" glyph-name="four" horiz-adv-x="611" d="M577 295V143H492V0H302V143H-6V280L179 701H375L203 295H302V437H492V295H577Z" />
<glyph unicode="5" glyph-name="five" horiz-adv-x="628" d="M404 448T466 422T563 347T597 236Q597 163 561 108T459 22T305 -9Q233 -9 156 15T21 81L97 225Q141 188 188 167T282 146Q326 146 349 165T373 221Q373 293 279 293Q168 293 84 291V701H565V539H274V448H321Q404
448 466 422Z" />
<glyph unicode="6" glyph-name="six" horiz-adv-x="628" d="M432 557T351 557Q278 557 241 516T204 397Q228 429 266 446T357 464Q424 464 474 436T551 355T579 235Q579 161 547 106T455 21T317 -9Q223 -9 155 33T51 155T14 341Q14 452 54 535T167 664T339 710Q400
710 462 694T568 650L492 511Q432 557 351 557ZM269 319T247 296T224 234Q224 196 245 173T309 150Q350 150 372 172T394 236Q394 275 373 297T311 319Q269 319 247 296Z" />
<glyph unicode="7" glyph-name="seven" horiz-adv-x="596" d="M14 701H584V561L331 0H112L354 539H198V441H14V701Z" />
<glyph unicode="8" glyph-name="eight" horiz-adv-x="630" d="M372 710T429 686T518 619T549 517Q549 475 528 437T472 375Q524 349 554 302T585 198Q585 136 550 89T449 17T297 -9Q211 -9 146 16T45 87T9 194Q9 251 42 300T132 375Q93 401 70 441T46 523Q46 579
77 621T164 687T296 710Q372 710 429 686ZM259 574T239 557T218 506Q218 475 238 458T297 441Q335 441 355 458T376 506Q376 539 356 556T297 574Q259 574 239 557ZM252 293T228 273T204 215Q204 179 228 160T297 140Q343 140 367 159T391 215Q391 253 367 273T297
293Q252 293 228 273Z" />
<glyph unicode="9" glyph-name="nine" horiz-adv-x="627" d="M159 145T241 145Q315 145 352 186T389 304Q335 237 236 237Q170 237 120 265T43 346T15 467Q15 541 47 596T139 680T277 710Q370 710 438 668T542 547T579 361Q579 250 539 166T425 37T253 -9Q193
-9 132 7T26 51L102 190Q159 145 241 145ZM243 551T222 529T200 466Q200 426 221 405T282 383Q324 383 346 406T369 468Q369 506 348 528T283 551Q243 551 222 529Z" />
<glyph unicode=":" glyph-name="colon" horiz-adv-x="255" d="M169 477T195 451T222 384Q222 342 196 316T127 289Q86 289 60 315T33 384Q33 425 59 451T127 477Q169 477 195 451ZM169 180T195 154T222 87Q222 45 196 19T127 -8Q86 -8 60 18T33 87Q33 128 59 154T127
180Q169 180 195 154Z" />
<glyph unicode=";" glyph-name="semicolon" horiz-adv-x="255" d="M169 477T195 451T222 384Q222 342 196 316T127 289Q86 289 60 315T33 384Q33 425 59 451T127 477Q169 477 195 451ZM168 180T195 155T222 87Q222 52 197 13L109 -126H14L71 14Q53 26 44 45T34
86Q34 127 61 153T129 180Q168 180 195 155Z" />
<glyph unicode="&lt;" glyph-name="less" horiz-adv-x="515" d="M484 589V448L161 324L484 199V58L31 243V404L484 589Z" />
<glyph unicode="=" glyph-name="equal" horiz-adv-x="515" d="M31 500H484V374H31V500ZM31 282H484V156H31V282Z" />
<glyph unicode="&gt;" glyph-name="greater" horiz-adv-x="515" d="M31 67V208L354 332L31 457V598L484 413V252L31 67Z" />
<glyph unicode="?" glyph-name="question" horiz-adv-x="486" d="M22 579T85 643T260 707Q366 707 425 661T484 529Q484 476 460 442T390 366Q351 331 332 306T313 245H163Q163 303 184 337T243 408Q270 434 282 452T295 496Q295 523 282 535T241 548Q209 548
193 528T176 464H21Q22 579 85 643ZM276 180T302 154T329 87Q329 45 303 19T234 -8Q193 -8 167 18T140 87Q140 128 166 154T234 180Q276 180 302 154Z" />
<glyph unicode="@" glyph-name="at" horiz-adv-x="888" d="M656 116T690 116Q709 116 726 136T755 192T766 272Q766 366 729 441T620 560T450 604Q361 604 286 559T166 436T122 268Q122 178 163 105T277 -9T438 -51Q484 -51 534 -36T624 11L673 -72Q630 -106 564
-126T438 -147Q321 -147 225 -93T74 56T19 268Q19 387 76 486T233 642T450 699Q568 699 663 644T814 492T869 275Q869 202 845 147T776 62T677 31Q581 31 559 106L557 116Q531 77 495 59T417 41Q362 41 314 70T235 151T205 271Q205 334 229 387T299 472T403 504Q437
504 464 492T508 466T527 446V492H656V162Q656 116 690 116ZM392 385T370 354T347 276Q347 227 370 192T431 157Q471 157 494 191T518 275Q518 322 494 353T429 385Q392 385 370 354Z" />
<glyph unicode="A" glyph-name="A" horiz-adv-x="786" d="M572 0L531 112H248L206 0H-8L291 701H505L794 0H572ZM306 264H476L392 493L306 264Z" />
<glyph unicode="B" glyph-name="B" horiz-adv-x="720" d="M484 701T545 680T639 618T672 524Q672 471 640 430T553 373Q617 360 655 312T694 196Q694 137 660 93T564 24T418 0H59V701H403Q484 701 545 680ZM423 426T441 442T459 487Q459 514 441 529T392 545H266V426H392Q423
426 441 442ZM432 155T455 173T479 222Q479 251 456 267T392 283H266V156H392Q432 155 455 173Z" />
<glyph unicode="C" glyph-name="C" horiz-adv-x="690" d="M533 490T488 515T399 541Q352 541 314 517T254 451T232 355Q232 302 254 260T314 193T399 168Q439 168 484 190T566 250L686 122Q629 60 549 23T389 -14Q284 -14 200 33T67 165T19 353Q19 455 68 537T203
667T396 714Q475 714 554 680T686 589L566 446Q533 490 488 515Z" />
<glyph unicode="D" glyph-name="D" horiz-adv-x="762" d="M478 701T563 658T696 535T743 351Q743 247 695 167T560 44T359 0H59V701H366Q478 701 563 658ZM443 163T487 214T531 349Q531 433 484 485T362 537H267V163H372Q443 163 487 214Z" />
<glyph unicode="E" glyph-name="E" horiz-adv-x="683" d="M59 701H632V541H267V431H598V271H267V160H642V0H59V701Z" />
<glyph unicode="F" glyph-name="F" horiz-adv-x="619" d="M59 701H603V541H267V401H579V241H267V0H59V701Z" />
<glyph unicode="G" glyph-name="G" horiz-adv-x="740" d="M517 363H696V78Q639 38 555 12T396 -14Q289 -14 203 33T68 164T19 351Q19 454 69 537T209 667T410 714Q490 714 570 685T706 606L588 464Q552 499 504 520T409 541Q359 541 319 516T255 448T232 351Q232
297 255 253T320 184T411 159Q456 159 517 188V363Z" />
<glyph unicode="H" glyph-name="H" horiz-adv-x="783" d="M59 701H267V422H516V701H724V0H516V261H267V0H59V701Z" />
<glyph unicode="I" glyph-name="I" horiz-adv-x="326" d="M59 701H267V0H59V701Z" />
<glyph unicode="J" glyph-name="J" horiz-adv-x="554" d="M507 118T439 55T252 -9Q99 -9 -7 108L88 245Q126 206 165 186T235 166Q264 166 280 184T297 237V535H59V701H507V232Q507 118 439 55Z" />
<glyph unicode="K" glyph-name="K" horiz-adv-x="761" d="M758 0H509L345 258L267 172V0H59V701H267V420L502 701H742L487 417L758 0Z" />
<glyph unicode="L" glyph-name="L" horiz-adv-x="574" d="M59 701H267V174H561V0H59V701Z" />
<glyph unicode="M" glyph-name="M" horiz-adv-x="939" d="M59 701H282L470 312L657 701H880V0H697V416L537 69H402L242 416V0H59V701Z" />
<glyph unicode="N" glyph-name="N" horiz-adv-x="783" d="M534 701H724V0H547L250 390V0H59V701H237L534 310V701Z" />
<glyph unicode="O" glyph-name="O" horiz-adv-x="802" d="M509 714T596 667T733 538T783 352Q783 248 734 165T597 34T401 -14Q292 -14 205 33T69 164T19 352Q19 455 68 537T205 667T401 714Q509 714 596 667ZM358 541T319 516T256 448T232 351Q232 298 255 254T318
185T404 159Q449 159 487 184T548 253T570 351Q570 404 548 447T488 516T404 541Q358 541 319 516Z" />
<glyph unicode="P" glyph-name="P" horiz-adv-x="683" d="M513 701T587 636T662 452Q662 327 588 258T377 189L267 188V0H59V701H377Q513 701 587 636ZM414 349T439 374T465 446Q465 492 440 516T367 541H267V349H367Q414 349 439 374Z" />
<glyph unicode="Q" glyph-name="Q" horiz-adv-x="805" d="M815 -94Q774 -129 717 -150T606 -172Q532 -172 473 -130T381 -14Q277 -9 195 39T66 169T19 352Q19 455 68 537T205 667T401 714Q509 714 596 667T733 538T783 352Q783 238 723 149T562 17Q591 -19 629
-19Q651 -19 682 -6T745 31L815 -94ZM232 298T255 254T318 185T404 159Q449 159 487 184T548 253T570 351Q570 404 548 447T488 516T404 541Q358 541 319 516T256 448T232 351Q232 298 255 254Z" />
<glyph unicode="R" glyph-name="R" horiz-adv-x="725" d="M470 0L377 189H267V0H59V701H386Q527 701 604 636T682 452Q682 375 652 319T564 229L706 0H470ZM267 349H386Q433 349 458 374T484 446Q484 492 459 516T386 541H267V349Z" />
<glyph unicode="S" glyph-name="S" horiz-adv-x="655" d="M507 508T440 531T330 554Q303 554 288 544T272 513Q272 485 302 470T397 436Q471 415 519 394T602 328T638 212Q638 139 600 89T496 13T349 -12Q259 -12 169 18T12 102L90 260Q143 214 219 183T351 151Q385
151 404 164T423 201Q423 230 392 245T296 278Q223 297 175 317T92 381T57 494Q57 562 93 612T194 690T347 717Q426 717 504 695T640 635L563 475Q507 508 440 531Z" />
<glyph unicode="T" glyph-name="T" horiz-adv-x="628" d="M6 701H622V535H418V0H209V535H6V701Z" />
<glyph unicode="U" glyph-name="U" horiz-adv-x="745" d="M256 231T290 195T375 159Q425 159 457 194T489 290V701H697V290Q697 198 658 130T545 24T375 -14Q277 -14 203 23T89 129T48 290V701H256V290Q256 231 290 195Z" />
<glyph unicode="V" glyph-name="V" horiz-adv-x="748" d="M-3 701H219L379 216L539 701H752L481 0H265L-3 701Z" />
<glyph unicode="W" glyph-name="W" horiz-adv-x="1133" d="M923 701H1136L899 0H685L567 449L445 0H232L-3 701H219L345 214L470 701H673L799 215L923 701Z" />
<glyph unicode="X" glyph-name="X" horiz-adv-x="756" d="M15 701H257L373 518L490 701H735L506 366L756 0H506L373 200L242 0H-1L247 357L15 701Z" />
<glyph unicode="Y" glyph-name="Y" horiz-adv-x="702" d="M709 701L457 222V0H249V218L-8 701H200L353 415L502 701H709Z" />
<glyph unicode="Z" glyph-name="Z" horiz-adv-x="679" d="M36 701H649V569L301 162H656V0H24V131L372 539H36V701Z" />
<glyph unicode="[" glyph-name="bracketleft" horiz-adv-x="370" d="M60 742H358V593H240V25H358V-124H60V742Z" />
<glyph unicode="\" glyph-name="backslash" horiz-adv-x="364" d="M81 808L408 -107H239L-88 808H81Z" />
<glyph unicode="]" glyph-name="bracketright" horiz-adv-x="370" d="M310 742V-124H12V25H130V593H12V742H310Z" />
<glyph unicode="^" glyph-name="asciicircum" horiz-adv-x="593" d="M562 141H421L297 414L172 141H31L216 524H377L562 141Z" />
<glyph unicode="_" glyph-name="underscore" horiz-adv-x="592" d="M0 -95H592V-204H0V-95Z" />
<glyph unicode="`" glyph-name="grave" horiz-adv-x="374" d="M196 775L305 605L172 595L37 717L196 775Z" />
<glyph unicode="a" glyph-name="a" horiz-adv-x="607" d="M432 552T496 500T561 353V0H363V60Q338 27 298 9T204 -9Q118 -9 69 37T20 162Q20 241 73 283T230 327H363V329Q363 363 339 382T269 401Q236 401 193 391T105 362L55 496Q193 552 317 552Q432 552 496
500ZM302 123T327 138T363 179V228H271Q210 228 210 177Q210 151 226 137T271 123Q302 123 327 138Z" />
<glyph unicode="b" glyph-name="b" horiz-adv-x="688" d="M492 551T549 516T637 417T669 269Q669 186 639 124T552 27T422 -7Q374 -7 335 11T268 63V0H66V742H268V481Q295 515 333 533T417 551Q492 551 549 516ZM411 153T438 186T465 274Q465 328 438 361T366
395Q322 395 295 362T268 274Q268 220 295 187T366 153Q411 153 438 186Z" />
<glyph unicode="c" glyph-name="c" horiz-adv-x="562" d="M386 359T364 373T313 387Q273 387 248 355T223 271Q223 218 247 186T313 153Q374 153 399 213L556 134Q525 67 459 30T302 -7Q217 -7 153 27T54 124T19 270Q19 354 54 417T154 516T304 551Q389 551 454
514T555 409L400 333Q386 359 364 373Z" />
<glyph unicode="d" glyph-name="d" horiz-adv-x="688" d="M622 742V0H420V62Q393 29 355 11T271 -7Q196 -7 139 28T51 126T19 275Q19 358 49 420T136 517T266 551Q314 551 353 533T420 481V742H622ZM366 148T393 181T420 270Q420 324 393 357T322 391Q277 391
250 358T223 270Q223 215 250 182T322 148Q366 148 393 181Z" />
<glyph unicode="e" glyph-name="e" horiz-adv-x="609" d="M440 551T515 472T590 254Q590 233 589 223H223Q235 184 262 163T329 142Q392 142 449 194L554 91Q511 43 450 18T312 -7Q222 -7 156 27T55 124T19 270Q19 354 55 417T156 516T306 551Q440 551 515 472ZM391
362T368 388T308 414Q273 414 250 389T219 322H390Q391 362 368 388Z" />
<glyph unicode="f" glyph-name="f" horiz-adv-x="411" d="M329 594T314 580T298 542V516H411V387H298V0H98V387H24V516H98V566Q98 651 157 701T312 751Q373 751 435 731L413 581Q374 594 355 594Q329 594 314 580Z" />
<glyph unicode="g" glyph-name="g" horiz-adv-x="651" d="M593 544V47Q593 -28 556 -85T451 -172T294 -203Q222 -203 156 -183T43 -132L110 4Q146 -20 190 -33T277 -46Q331 -46 362 -23T393 41V96Q339 31 247 31Q181 31 130 63T49 156T19 294Q19 370 47 428T127
519T243 551Q338 551 393 485V544H593ZM342 176T367 207T393 288Q393 340 368 371T300 402Q259 402 234 371T208 288Q208 238 233 207T300 176Q342 176 367 207Z" />
<glyph unicode="h" glyph-name="h" horiz-adv-x="683" d="M529 552T583 496T637 345V0H435V287Q435 328 414 351T357 375Q316 374 292 345T268 269V0H66V742H268V460Q297 505 340 528T441 552Q529 552 583 496Z" />
<glyph unicode="i" glyph-name="i" horiz-adv-x="324" d="M61 544H263V0H61V544ZM207 803T236 774T265 699Q265 653 236 624T161 595Q115 595 86 624T56 699Q56 745 85 774T161 803Q207 803 236 774Z" />
<glyph unicode="j" glyph-name="j" horiz-adv-x="326" d="M3 -45T17 -45Q65 -45 65 12V544H267V-19Q267 -104 212 -153T64 -202Q-6 -202 -64 -180L-25 -39Q3 -45 17 -45ZM209 803T238 774T267 699Q267 653 238 624T163 595Q117 595 88 624T58 699Q58 745 87 774T163
803Q209 803 238 774Z" />
<glyph unicode="k" glyph-name="k" horiz-adv-x="648" d="M408 0L309 189L268 146V0H66V742H268V381L418 544H646L447 334L647 0H408Z" />
<glyph unicode="l" glyph-name="l" horiz-adv-x="335" d="M66 742H268V0H66V742Z" />
<glyph unicode="m" glyph-name="m" horiz-adv-x="1034" d="M852 552T896 527T964 454T988 345V0H786V287Q786 327 766 351T711 375Q672 374 649 345T626 269V0H424V287Q424 327 404 351T349 375Q310 374 287 345T263 269V0H61V544H263V461Q291 505 334 528T432
552Q495 552 542 521T611 434Q637 491 684 521T795 552Q852 552 896 527Z" />
<glyph unicode="n" glyph-name="n" horiz-adv-x="678" d="M494 552T538 527T607 454T632 345V0H430V287Q430 327 409 351T352 375Q311 374 287 345T263 269V0H61V544H263V460Q292 505 335 528T436 552Q494 552 538 527Z" />
<glyph unicode="o" glyph-name="o" horiz-adv-x="643" d="M413 551T481 517T586 419T624 272Q624 189 587 126T481 28T322 -7Q231 -7 163 27T57 125T19 272Q19 356 56 419T162 516T322 551Q413 551 481 517ZM277 391T250 358T223 270Q223 215 250 182T322 149Q366
149 393 182T420 270Q420 324 393 357T322 391Q277 391 250 358Z" />
<glyph unicode="p" glyph-name="p" horiz-adv-x="688" d="M492 551T549 516T637 417T669 269Q669 186 639 124T552 27T422 -7Q374 -7 335 11T268 63V-194H66V544H268V481Q295 515 333 533T417 551Q492 551 549 516ZM411 153T438 186T465 274Q465 328 438 361T366
395Q322 395 295 362T268 274Q268 220 295 187T366 153Q411 153 438 186Z" />
<glyph unicode="q" glyph-name="q" horiz-adv-x="688" d="M622 544V-194H420V62Q393 29 355 11T271 -7Q196 -7 139 28T51 126T19 275Q19 358 49 420T136 517T266 551Q314 551 353 533T420 481V544H622ZM366 148T393 181T420 270Q420 324 393 357T322 391Q277 391
250 358T223 270Q223 215 250 182T322 148Q366 148 393 181Z" />
<glyph unicode="r" glyph-name="r" horiz-adv-x="444" d="M292 503T335 527T434 552V370Q422 372 399 372Q336 372 300 342T263 260V0H61V544H263V458Q292 503 335 527Z" />
<glyph unicode="s" glyph-name="s" horiz-adv-x="535" d="M333 417T266 417Q247 417 236 411T225 391Q225 376 245 367T311 345Q371 328 410 311T479 260T509 171Q509 88 444 40T270 -9Q198 -9 133 10T14 68L76 195Q127 162 177 145T273 128Q294 128 306 134T318
153Q318 168 299 177T234 199Q176 215 137 232T69 283T40 371Q40 455 104 504T272 553Q397 553 511 487L444 360Q333 417 266 417Z" />
<glyph unicode="t" glyph-name="t" horiz-adv-x="449" d="M433 26Q404 10 363 1T279 -9Q192 -9 140 39T88 170V387H13V516H88V667H289V516H423V387H289V201Q289 175 301 162T335 149Q354 149 397 165L433 26Z" />
<glyph unicode="u" glyph-name="u" horiz-adv-x="668" d="M607 544V0H405V81Q377 37 335 14T238 -9Q181 -9 138 16T70 89T46 199V544H248V256Q248 216 268 193T321 169Q360 170 382 199T405 275V544H607Z" />
<glyph unicode="v" glyph-name="v" horiz-adv-x="594" d="M-8 544H200L300 184L401 544H603L400 0H194L-8 544Z" />
<glyph unicode="w" glyph-name="w" horiz-adv-x="959" d="M-8 544H197L295 197L389 544H579L676 197L772 544H968L770 0H571L481 312L389 0H190L-8 544Z" />
<glyph unicode="x" glyph-name="x" horiz-adv-x="633" d="M10 544H242L317 403L401 544H621L451 279L633 0H401L317 154L221 0H-1L181 278L10 544Z" />
<glyph unicode="y" glyph-name="y" horiz-adv-x="605" d="M353 -126T297 -164T159 -203Q109 -203 67 -189T-16 -143L68 -8Q87 -25 104 -32T141 -39Q183 -39 200 -4L210 15L-15 544H192L311 211L412 544H613L385 -46Q353 -126 297 -164Z" />
<glyph unicode="z" glyph-name="z" horiz-adv-x="562" d="M39 544H527V424L283 151H537V0H29V119L273 392H39V544Z" />
<glyph unicode="{" glyph-name="braceleft" horiz-adv-x="370" d="M272 378T249 350T170 309Q226 295 249 267T272 181V84Q272 49 289 36T356 23V-126H277Q207 -126 167 -112T110 -67T92 21V194Q92 215 85 223T59 232H17V385H59Q77 385 84 393T92 424V596Q92 652
109 684T167 730T277 744H356V595Q306 595 289 582T272 534V437Q272 378 249 350Z" />
<glyph unicode="|" glyph-name="bar" horiz-adv-x="314" d="M82 799H232V-106H82V799Z" />
<glyph unicode="}" glyph-name="braceright" horiz-adv-x="370" d="M353 385V232H311Q293 232 286 224T278 194V21Q278 -35 261 -66T203 -112T93 -126H14V23Q64 23 81 36T98 84V181Q98 239 121 267T200 309Q144 322 121 350T98 437V534Q98 569 81 582T14 595V744H93Q163
744 203 730T260 684T278 596V424Q278 402 285 394T311 385H353Z" />
<glyph unicode="~" glyph-name="asciitilde" horiz-adv-x="515" d="M465 323T436 277T344 231Q316 231 296 239T252 262Q241 269 231 273T214 278Q186 278 186 235H51Q51 330 81 376T173 422Q199 422 219 414T264 391Q289 375 302 375Q331 375 331 418H465Q465
323 436 277Z" />
<glyph unicode="&#xa0;" glyph-name="uni00A0" horiz-adv-x="211" />
<glyph unicode="&#xa1;" glyph-name="exclamdown" horiz-adv-x="276" d="M104 363T78 389T51 456Q51 498 77 524T146 551Q187 551 213 525T240 456Q240 415 214 389T146 363Q104 363 78 389ZM238 -156H46V26L81 293H202L238 26V-156Z" />
<glyph unicode="&#xa2;" glyph-name="cent" horiz-adv-x="600" d="M532 83T488 50T385 2V-160H236V-1Q136 18 78 90T19 270Q19 379 77 452T236 545V707H385V541Q442 528 485 494T555 409L400 333Q386 359 364 373T313 387Q273 387 248 355T223 271Q223 218 247
186T313 153Q374 153 399 213L556 134Q532 83 488 50Z" />
<glyph unicode="&#xa3;" glyph-name="sterling" horiz-adv-x="570" d="M305 156H552V0H24V156H96V307H24V375H96V468Q96 583 162 646T347 710Q410 710 467 688T567 626L490 473Q427 536 370 536Q305 536 305 464V375H468V307H305V156Z" />
<glyph unicode="&#xa4;" glyph-name="currency" horiz-adv-x="697" d="M605 258T575 203L678 101L565 -12L461 92Q409 66 348 66Q287 66 235 92L132 -12L19 101L121 202Q91 259 91 322Q91 382 118 436L19 534L132 647L229 549Q284 578 348 578Q414 578 467 549L565
647L678 534L579 435Q605 383 605 322Q605 258 575 203ZM389 224T419 253T449 322Q449 363 419 392T348 422Q307 422 278 393T248 322Q248 282 277 253T348 224Q389 224 419 253Z" />
<glyph unicode="&#xa5;" glyph-name="yen" horiz-adv-x="717" d="M717 701L524 335H650V267H489L465 222V219H650V151H465V0H257V151H69V219H256L230 267H69V335H194L0 701H208L361 415L509 701H717Z" />
<glyph unicode="&#xa6;" glyph-name="brokenbar" horiz-adv-x="314" d="M82 799H232V459H82V799ZM82 235H232V-106H82V235Z" />
<glyph unicode="&#xa7;" glyph-name="section" horiz-adv-x="568" d="M359 561T296 561Q273 561 261 554T249 535Q249 518 271 507T344 481Q405 462 445 444T516 393T546 308Q546 264 521 229T452 172Q481 152 493 132T506 78Q506 29 478 -9T396 -68T270 -89Q202
-89 135 -69T14 -11L69 114Q122 81 173 64T266 46Q291 46 304 53T318 72Q318 87 297 97T227 123Q167 141 127 159T56 211T26 296Q26 342 51 376T124 432Q91 452 79 473T66 526Q66 575 93 613T173 672T294 694Q413 694 534 629L474 504Q359 561 296 561ZM238 339T223
331T208 309Q208 291 233 280T297 268Q328 268 343 276T359 297Q359 315 332 327T267 339Q238 339 223 331Z" />
<glyph unicode="&#xa8;" glyph-name="dieresis" horiz-adv-x="448" d="M165 774T188 751T211 691Q211 655 188 632T129 608Q93 608 70 631T47 691Q47 727 70 750T129 774Q165 774 188 751ZM362 774T385 751T408 691Q408 655 385 632T326 608Q290 608 267 631T244
691Q244 727 267 750T326 774Q362 774 385 751Z" />
<glyph unicode="&#xa9;" glyph-name="copyright" horiz-adv-x="715" d="M451 689T528 644T651 520T696 350Q696 259 651 181T528 56T356 9Q263 9 186 55T64 179T19 348Q19 439 64 517T186 642T358 689Q451 689 528 644ZM289 598T233 564T143 473T110 348Q110 281
142 224T231 134T356 100Q425 100 482 134T572 225T605 350Q605 417 572 474T483 564T358 598Q289 598 233 564ZM427 410T407 421T366 433Q333 433 311 410T289 351Q289 315 311 292T366 268Q385 268 405 277T442 304L497 246Q471 217 435 201T361 184Q313 184
275 205T214 264T192 349Q192 395 214 432T276 491T365 512Q401 512 437 497T497 455L442 390Q427 410 407 421Z" />
<glyph unicode="&#xaa;" glyph-name="ordfeminine" horiz-adv-x="397" d="M282 790T324 759T365 670V458H231V495Q198 452 131 452Q77 452 47 480T16 555Q16 603 50 628T149 654H231Q230 672 216 682T174 692Q132 692 69 671L38 759Q133 790 207 790Q282 790 324
759ZM211 536T231 563V593H178Q162 593 154 586T145 566Q145 536 178 536Q211 536 231 563Z" />
<glyph unicode="&#xab;" glyph-name="guillemotleft" horiz-adv-x="526" d="M114 459H276L170 270L276 80H114L-9 270L114 459ZM356 459H518L412 270L518 80H356L233 270L356 459Z" />
<glyph unicode="&#xac;" glyph-name="logicalnot" horiz-adv-x="588" d="M529 439V132H385V312H31V439H529Z" />
<glyph unicode="&#xad;" glyph-name="uni00AD" horiz-adv-x="377" d="M52 371H325V245H52V371Z" />
<glyph unicode="&#xae;" glyph-name="registered" horiz-adv-x="715" d="M451 689T528 644T651 520T696 350Q696 259 651 181T528 56T356 9Q263 9 186 55T64 179T19 348Q19 439 64 517T186 642T358 689Q451 689 528 644ZM425 100T482 134T572 225T605 350Q605
417 572 474T483 564T358 598Q289 598 233 564T143 473T110 348Q110 281 142 224T231 134T356 100Q425 100 482 134ZM499 337T446 307L510 206H407L365 290H319V206H228V516H368Q430 516 464 488T499 407Q499 337 446 307ZM319 359H368Q389 359 400 370T412 403Q412
424 401 435T368 447H319V359Z" />
<glyph unicode="&#xaf;" glyph-name="overscore" horiz-adv-x="342" d="M18 752H333V637H18V752Z" />
<glyph unicode="&#xb0;" glyph-name="degree" horiz-adv-x="389" d="M255 821T290 786T325 701Q325 652 290 617T205 582Q155 582 120 617T85 701Q85 751 120 786T205 821Q255 821 290 786ZM187 745T174 732T161 701Q161 683 174 671T205 658Q223 658 236 670T249
701Q249 719 236 732T205 745Q187 745 174 732Z" />
<glyph unicode="&#xb1;" glyph-name="plusminus" horiz-adv-x="515" d="M321 467H484V346H321V190H195V346H31V467H195V623H321V467ZM31 -8V118H484V-8H31Z" />
<glyph unicode="&#xb2;" glyph-name="uni00B2" horiz-adv-x="388" d="M189 611T198 626T208 652Q208 675 176 675Q152 675 121 661T58 622L5 719Q105 785 199 785Q267 785 311 754T356 672Q356 638 334 604T271 530L202 464H363V360H22V445L175 597Q189 611 198 626Z" />
<glyph unicode="&#xb3;" glyph-name="uni00B3" horiz-adv-x="376" d="M304 601T330 571T357 494Q357 433 309 394T182 355Q133 355 86 370T7 411L63 514Q112 456 171 456Q219 456 219 494Q219 532 171 532H93V603L178 681H29V779H337V703L240 615L260 610Q304
601 330 571Z" />
<glyph unicode="&#xb4;" glyph-name="acute" horiz-adv-x="350" d="M159 775L317 717L164 595L32 605L159 775Z" />
<glyph unicode="&#xb5;" glyph-name="uni00B5" horiz-adv-x="688" d="M627 544V0H425V81Q399 39 359 16T268 -9V-194H66V544H268V256Q268 216 288 193T341 169Q380 170 402 199T425 275V544H627Z" />
<glyph unicode="&#xb6;" glyph-name="paragraph" horiz-adv-x="668" d="M202 307Q125 307 78 340T12 422T-8 520Q-8 580 18 630T100 711T244 742H609V-106H460V630H375V-106H226V307H202Z" />
<glyph unicode="&#xb7;" glyph-name="middot" horiz-adv-x="239" d="M163 397T192 368T221 293Q221 247 192 218T117 189Q71 189 42 218T12 293Q12 339 41 368T117 397Q163 397 192 368Z" />
<glyph unicode="&#xb8;" glyph-name="cedilla" horiz-adv-x="332" d="M244 0L223 -57Q306 -78 306 -139Q306 -189 268 -214T173 -239Q116 -239 59 -219L87 -134Q107 -142 135 -142Q153 -142 164 -137T176 -122Q176 -111 160 -105T120 -99H100L135 10L244 0Z" />
<glyph unicode="&#xb9;" glyph-name="uni00B9" horiz-adv-x="270" d="M0 779H219V360H78V672H0V779Z" />
<glyph unicode="&#xba;" glyph-name="ordmasculine" horiz-adv-x="416" d="M296 789T348 744T401 621Q401 545 349 500T208 454Q120 454 68 499T16 621Q16 698 68 743T208 789Q296 789 348 744ZM183 685T169 667T154 620Q154 591 168 573T208 555Q232 555 247
573T262 620Q262 649 247 667T208 685Q183 685 169 667Z" />
<glyph unicode="&#xbb;" glyph-name="guillemotright" horiz-adv-x="528" d="M169 80H7L113 269L7 459H169L292 269L169 80ZM411 80H249L355 269L249 459H411L534 269L411 80Z" />
<glyph unicode="&#xbc;" glyph-name="onequarter" horiz-adv-x="876" d="M0 700H219V281H78V593H0V700ZM584 701H720L228 0H91L584 701ZM612 419H747L626 179H690V260H821V179H877V82H821V0H690V82H482V171L612 419Z" />
<glyph unicode="&#xbd;" glyph-name="onehalf" horiz-adv-x="920" d="M0 700H219V281H78V593H0V700ZM584 701H720L228 0H91L584 701ZM721 251T730 266T740 292Q740 315 708 315Q684 315 653 301T590 262L537 359Q637 425 731 425Q799 425 843 394T888 312Q888
278 866 244T803 170L734 104H895V0H554V85L707 237Q721 251 730 266Z" />
<glyph unicode="&#xbe;" glyph-name="threequarters" horiz-adv-x="952" d="M304 522T330 492T357 415Q357 354 309 315T182 276Q133 276 86 291T7 332L63 435Q112 377 171 377Q219 377 219 415Q219 453 171 453H93V524L178 602H29V700H337V624L240 536L260 531Q304
522 330 492ZM660 701H796L304 0H167L660 701ZM689 419H824L703 179H767V260H898V179H954V82H898V0H767V82H559V171L689 419Z" />
<glyph unicode="&#xbf;" glyph-name="questiondown" horiz-adv-x="486" d="M210 363T184 389T157 456Q157 498 183 524T252 551Q293 551 319 525T346 456Q346 415 320 389T252 363Q210 363 184 389ZM464 -36T401 -100T226 -164Q120 -164 61 -118T2 14Q2 67 26
101T96 177Q135 212 154 237T173 298H323Q323 240 302 206T243 135Q216 109 204 91T191 47Q191 20 204 8T245 -5Q277 -5 293 15T310 79H465Q464 -36 401 -100Z" />
<glyph unicode="&#xc0;" glyph-name="Agrave" horiz-adv-x="786" d="M572 0L531 112H248L206 0H-8L291 701H505L794 0H572ZM306 264H476L392 493L306 264ZM378 928L487 758L354 748L219 870L378 928Z" />
<glyph unicode="&#xc1;" glyph-name="Aacute" horiz-adv-x="786" d="M572 0L531 112H248L206 0H-8L291 701H505L794 0H572ZM306 264H476L392 493L306 264ZM420 928L578 870L425 748L293 758L420 928Z" />
<glyph unicode="&#xc2;" glyph-name="Acircumflex" horiz-adv-x="786" d="M572 0L531 112H248L206 0H-8L291 701H505L794 0H572ZM306 264H476L392 493L306 264ZM591 755H457L395 824L332 755H198L308 912H481L591 755Z" />
<glyph unicode="&#xc3;" glyph-name="Atilde" horiz-adv-x="786" d="M572 0L531 112H248L206 0H-8L291 701H505L794 0H572ZM306 264H476L392 493L306 264ZM587 834T563 793T484 752Q460 752 440 759T394 779Q364 795 351 795Q325 795 323 755H214Q214 839 238
880T317 922Q341 922 361 915T409 895Q420 889 431 885T449 880Q464 880 471 889T479 919H587Q587 834 563 793Z" />
<glyph unicode="&#xc4;" glyph-name="Adieresis" horiz-adv-x="786" d="M572 0L531 112H248L206 0H-8L291 701H505L794 0H572ZM306 264H476L392 493L306 264ZM332 919T355 896T378 836Q378 800 355 777T295 753Q259 753 236 776T213 836Q213 872 236 895T295 919Q332
919 355 896ZM529 919T552 896T575 836Q575 800 552 777T492 753Q456 753 433 776T410 836Q410 872 433 895T492 919Q529 919 552 896Z" />
<glyph unicode="&#xc5;" glyph-name="Aring" horiz-adv-x="786" d="M572 0L531 112H248L206 0H-8L291 701H505L794 0H572ZM306 264H476L392 493L306 264ZM444 978T479 943T515 857Q515 807 480 772T394 736Q344 736 309 771T273 857Q273 907 308 942T394 978Q444
978 479 943ZM377 898T365 886T352 857Q352 840 364 828T394 816Q411 816 423 828T436 857Q436 874 424 886T394 898Q377 898 365 886Z" />
<glyph unicode="&#xc6;" glyph-name="AE" horiz-adv-x="1127" d="M711 160H1086V0H503V133H276L208 0H-8L386 701H1076V541H711V431H1042V271H711V160ZM353 283H503V542H485L353 283Z" />
<glyph unicode="&#xc7;" glyph-name="Ccedilla" horiz-adv-x="690" d="M439 168T484 190T566 250L686 122Q636 67 568 32T428 -12L411 -57Q494 -78 494 -139Q494 -189 456 -214T361 -239Q304 -239 247 -219L275 -134Q295 -142 323 -142Q341 -142 352 -137T364
-122Q364 -111 348 -105T308 -99H288L317 -8Q230 7 163 57T57 184T19 353Q19 455 68 537T203 667T396 714Q475 714 554 680T686 589L566 446Q533 490 488 515T399 541Q352 541 314 517T254 451T232 355Q232 302 254 260T314 193T399 168Q439 168 484 190Z" />
<glyph unicode="&#xc8;" glyph-name="Egrave" horiz-adv-x="683" d="M59 701H632V541H267V431H598V271H267V160H642V0H59V701ZM333 928L442 758L309 748L174 870L333 928Z" />
<glyph unicode="&#xc9;" glyph-name="Eacute" horiz-adv-x="683" d="M59 701H632V541H267V431H598V271H267V160H642V0H59V701ZM375 928L533 870L380 748L248 758L375 928Z" />
<glyph unicode="&#xca;" glyph-name="Ecircumflex" horiz-adv-x="683" d="M59 701H632V541H267V431H598V271H267V160H642V0H59V701ZM546 755H412L350 824L287 755H153L263 912H436L546 755Z" />
<glyph unicode="&#xcb;" glyph-name="Edieresis" horiz-adv-x="683" d="M59 701H632V541H267V431H598V271H267V160H642V0H59V701ZM287 919T310 896T333 836Q333 800 310 777T250 753Q214 753 191 776T168 836Q168 872 191 895T250 919Q287 919 310 896ZM484 919T507
896T530 836Q530 800 507 777T447 753Q411 753 388 776T365 836Q365 872 388 895T447 919Q484 919 507 896Z" />
<glyph unicode="&#xcc;" glyph-name="Igrave" horiz-adv-x="326" d="M59 701H267V0H59V701ZM147 928L256 758L123 748L-12 870L147 928Z" />
<glyph unicode="&#xcd;" glyph-name="Iacute" horiz-adv-x="326" d="M59 701H267V0H59V701ZM189 928L347 870L194 748L62 758L189 928Z" />
<glyph unicode="&#xce;" glyph-name="Icircumflex" horiz-adv-x="326" d="M59 701H267V0H59V701ZM360 755H226L164 824L101 755H-33L77 912H250L360 755Z" />
<glyph unicode="&#xcf;" glyph-name="Idieresis" horiz-adv-x="326" d="M59 701H267V0H59V701ZM101 919T124 896T147 836Q147 800 124 777T64 753Q28 753 5 776T-18 836Q-18 872 5 895T64 919Q101 919 124 896ZM298 919T321 896T344 836Q344 800 321 777T261 753Q225
753 202 776T179 836Q179 872 202 895T261 919Q298 919 321 896Z" />
<glyph unicode="&#xd0;" glyph-name="Eth" horiz-adv-x="762" d="M478 701T563 658T696 535T743 351Q743 247 695 167T560 44T359 0H59V305H-5V396H59V701H366Q478 701 563 658ZM443 163T487 214T531 349Q531 433 484 485T362 537H267V396H414V305H267V163H372Q443
163 487 214Z" />
<glyph unicode="&#xd1;" glyph-name="Ntilde" horiz-adv-x="783" d="M534 701H724V0H547L250 390V0H59V701H237L534 310V701ZM587 834T563 793T484 752Q460 752 440 759T394 779Q364 795 351 795Q325 795 323 755H214Q214 839 238 880T317 922Q341 922 361 915T409
895Q420 889 431 885T449 880Q464 880 471 889T479 919H587Q587 834 563 793Z" />
<glyph unicode="&#xd2;" glyph-name="Ograve" horiz-adv-x="802" d="M509 714T596 667T733 538T783 352Q783 248 734 165T597 34T401 -14Q292 -14 205 33T69 164T19 352Q19 455 68 537T205 667T401 714Q509 714 596 667ZM358 541T319 516T256 448T232 351Q232
298 255 254T318 185T404 159Q449 159 487 184T548 253T570 351Q570 404 548 447T488 516T404 541Q358 541 319 516ZM385 928L494 758L361 748L226 870L385 928Z" />
<glyph unicode="&#xd3;" glyph-name="Oacute" horiz-adv-x="802" d="M509 714T596 667T733 538T783 352Q783 248 734 165T597 34T401 -14Q292 -14 205 33T69 164T19 352Q19 455 68 537T205 667T401 714Q509 714 596 667ZM358 541T319 516T256 448T232 351Q232
298 255 254T318 185T404 159Q449 159 487 184T548 253T570 351Q570 404 548 447T488 516T404 541Q358 541 319 516ZM427 928L585 870L432 748L300 758L427 928Z" />
<glyph unicode="&#xd4;" glyph-name="Ocircumflex" horiz-adv-x="802" d="M509 714T596 667T733 538T783 352Q783 248 734 165T597 34T401 -14Q292 -14 205 33T69 164T19 352Q19 455 68 537T205 667T401 714Q509 714 596 667ZM358 541T319 516T256 448T232 351Q232
298 255 254T318 185T404 159Q449 159 487 184T548 253T570 351Q570 404 548 447T488 516T404 541Q358 541 319 516ZM598 755H464L402 824L339 755H205L315 912H488L598 755Z" />
<glyph unicode="&#xd5;" glyph-name="Otilde" horiz-adv-x="802" d="M509 714T596 667T733 538T783 352Q783 248 734 165T597 34T401 -14Q292 -14 205 33T69 164T19 352Q19 455 68 537T205 667T401 714Q509 714 596 667ZM358 541T319 516T256 448T232 351Q232
298 255 254T318 185T404 159Q449 159 487 184T548 253T570 351Q570 404 548 447T488 516T404 541Q358 541 319 516ZM594 834T570 793T491 752Q467 752 447 759T401 779Q371 795 358 795Q332 795 330 755H221Q221 839 245 880T324 922Q348 922 368 915T416 895Q427
889 438 885T456 880Q471 880 478 889T486 919H594Q594 834 570 793Z" />
<glyph unicode="&#xd6;" glyph-name="Odieresis" horiz-adv-x="802" d="M509 714T596 667T733 538T783 352Q783 248 734 165T597 34T401 -14Q292 -14 205 33T69 164T19 352Q19 455 68 537T205 667T401 714Q509 714 596 667ZM358 541T319 516T256 448T232 351Q232
298 255 254T318 185T404 159Q449 159 487 184T548 253T570 351Q570 404 548 447T488 516T404 541Q358 541 319 516ZM339 919T362 896T385 836Q385 800 362 777T302 753Q266 753 243 776T220 836Q220 872 243 895T302 919Q339 919 362 896ZM536 919T559 896T582
836Q582 800 559 777T499 753Q463 753 440 776T417 836Q417 872 440 895T499 919Q536 919 559 896Z" />
<glyph unicode="&#xd7;" glyph-name="multiply" horiz-adv-x="515" d="M463 443L348 328L463 213L373 123L258 238L142 123L53 213L168 328L53 443L142 533L258 418L373 533L463 443Z" />
<glyph unicode="&#xd8;" glyph-name="Oslash" horiz-adv-x="802" d="M704 587T743 513T783 348Q783 246 734 164T597 35T401 -12Q324 -12 258 12L218 -55H97L166 59Q97 108 58 183T19 348Q19 450 68 531T205 658T401 704Q472 704 540 682L584 755H705L633 636Q704
587 743 513ZM232 282T269 231L445 525Q423 530 404 530Q358 530 319 506T256 440T232 347Q232 282 269 231ZM449 161T487 185T548 252T570 347Q570 381 560 411T531 466L353 169Q379 161 404 161Q449 161 487 185Z" />
<glyph unicode="&#xd9;" glyph-name="Ugrave" horiz-adv-x="745" d="M256 231T290 195T375 159Q425 159 457 194T489 290V701H697V290Q697 198 658 130T545 24T375 -14Q277 -14 203 23T89 129T48 290V701H256V290Q256 231 290 195ZM357 928L466 758L333 748L198
870L357 928Z" />
<glyph unicode="&#xda;" glyph-name="Uacute" horiz-adv-x="745" d="M256 231T290 195T375 159Q425 159 457 194T489 290V701H697V290Q697 198 658 130T545 24T375 -14Q277 -14 203 23T89 129T48 290V701H256V290Q256 231 290 195ZM399 928L557 870L404 748L272
758L399 928Z" />
<glyph unicode="&#xdb;" glyph-name="Ucircumflex" horiz-adv-x="745" d="M256 231T290 195T375 159Q425 159 457 194T489 290V701H697V290Q697 198 658 130T545 24T375 -14Q277 -14 203 23T89 129T48 290V701H256V290Q256 231 290 195ZM570 755H436L374 824L311
755H177L287 912H460L570 755Z" />
<glyph unicode="&#xdc;" glyph-name="Udieresis" horiz-adv-x="745" d="M256 231T290 195T375 159Q425 159 457 194T489 290V701H697V290Q697 198 658 130T545 24T375 -14Q277 -14 203 23T89 129T48 290V701H256V290Q256 231 290 195ZM311 919T334 896T357 836Q357
800 334 777T274 753Q238 753 215 776T192 836Q192 872 215 895T274 919Q311 919 334 896ZM508 919T531 896T554 836Q554 800 531 777T471 753Q435 753 412 776T389 836Q389 872 412 895T471 919Q508 919 531 896Z" />
<glyph unicode="&#xdd;" glyph-name="Yacute" horiz-adv-x="702" d="M709 701L457 222V0H249V218L-8 701H200L353 415L502 701H709ZM377 928L535 870L382 748L250 758L377 928Z" />
<glyph unicode="&#xde;" glyph-name="Thorn" horiz-adv-x="694" d="M467 612T534 583T637 498T673 367Q673 288 637 229T534 139T377 107H267V0H59V701H267V612H377Q467 612 534 583ZM411 265T435 290T459 361Q459 404 435 428T368 453H267V265H368Q411 265 435 290Z" />
<glyph unicode="&#xdf;" glyph-name="germandbls" horiz-adv-x="667" d="M48 572T82 630T180 719T327 751Q408 751 469 726T564 655T598 548Q598 499 575 455T512 384Q570 366 605 321T641 216Q641 152 606 103T507 27T356 0H308V142H339Q445 142 445 219Q445
293 333 293H312V435Q402 435 402 518Q402 601 329 601Q250 601 250 509V0H48V494Q48 572 82 630Z" />
<glyph unicode="&#xe0;" glyph-name="agrave" horiz-adv-x="607" d="M432 552T496 500T561 353V0H363V60Q338 27 298 9T204 -9Q118 -9 69 37T20 162Q20 241 73 283T230 327H363V329Q363 363 339 382T269 401Q236 401 193 391T105 362L55 496Q193 552 317 552Q432
552 496 500ZM302 123T327 138T363 179V228H271Q210 228 210 177Q210 151 226 137T271 123Q302 123 327 138ZM288 775L397 605L264 595L129 717L288 775Z" />
<glyph unicode="&#xe1;" glyph-name="aacute" horiz-adv-x="607" d="M432 552T496 500T561 353V0H363V60Q338 27 298 9T204 -9Q118 -9 69 37T20 162Q20 241 73 283T230 327H363V329Q363 363 339 382T269 401Q236 401 193 391T105 362L55 496Q193 552 317 552Q432
552 496 500ZM302 123T327 138T363 179V228H271Q210 228 210 177Q210 151 226 137T271 123Q302 123 327 138ZM331 775L489 717L336 595L204 605L331 775Z" />
<glyph unicode="&#xe2;" glyph-name="acircumflex" horiz-adv-x="607" d="M432 552T496 500T561 353V0H363V60Q338 27 298 9T204 -9Q118 -9 69 37T20 162Q20 241 73 283T230 327H363V329Q363 363 339 382T269 401Q236 401 193 391T105 362L55 496Q193 552 317
552Q432 552 496 500ZM302 123T327 138T363 179V228H271Q210 228 210 177Q210 151 226 137T271 123Q302 123 327 138ZM500 609H366L304 678L241 609H107L217 766H390L500 609Z" />
<glyph unicode="&#xe3;" glyph-name="atilde" horiz-adv-x="607" d="M432 552T496 500T561 353V0H363V60Q338 27 298 9T204 -9Q118 -9 69 37T20 162Q20 241 73 283T230 327H363V329Q363 363 339 382T269 401Q236 401 193 391T105 362L55 496Q193 552 317 552Q432
552 496 500ZM302 123T327 138T363 179V228H271Q210 228 210 177Q210 151 226 137T271 123Q302 123 327 138ZM497 678T473 637T394 596Q370 596 350 603T304 623Q274 639 261 639Q235 639 233 599H124Q124 683 148 724T227 766Q251 766 271 759T319 739Q330 733
341 729T359 724Q374 724 381 733T389 763H497Q497 678 473 637Z" />
<glyph unicode="&#xe4;" glyph-name="adieresis" horiz-adv-x="607" d="M432 552T496 500T561 353V0H363V60Q338 27 298 9T204 -9Q118 -9 69 37T20 162Q20 241 73 283T230 327H363V329Q363 363 339 382T269 401Q236 401 193 391T105 362L55 496Q193 552 317 552Q432
552 496 500ZM302 123T327 138T363 179V228H271Q210 228 210 177Q210 151 226 137T271 123Q302 123 327 138ZM242 774T265 751T288 691Q288 655 265 632T206 608Q170 608 147 631T124 691Q124 727 147 750T206 774Q242 774 265 751ZM439 774T462 751T485 691Q485
655 462 632T403 608Q367 608 344 631T321 691Q321 727 344 750T403 774Q439 774 462 751Z" />
<glyph unicode="&#xe5;" glyph-name="aring" horiz-adv-x="607" d="M432 552T496 500T561 353V0H363V60Q338 27 298 9T204 -9Q118 -9 69 37T20 162Q20 241 73 283T230 327H363V329Q363 363 339 382T269 401Q236 401 193 391T105 362L55 496Q193 552 317 552Q432
552 496 500ZM302 123T327 138T363 179V228H271Q210 228 210 177Q210 151 226 137T271 123Q302 123 327 138ZM354 821T389 786T425 700Q425 650 390 615T304 579Q254 579 219 614T183 700Q183 750 218 785T304 821Q354 821 389 786ZM287 741T275 729T262 700Q262
683 274 671T304 659Q321 659 333 671T346 700Q346 717 334 729T304 741Q287 741 275 729Z" />
<glyph unicode="&#xe6;" glyph-name="ae" horiz-adv-x="962" d="M580 184T610 163T679 142Q744 142 799 194L904 91Q861 43 800 18T661 -7Q585 -7 529 20T440 99Q409 46 354 18T221 -10Q128 -10 74 36T20 161Q20 240 74 281T231 324H365V338Q362 368 338 384T271
401Q236 401 191 391T101 362L55 497Q194 552 318 552Q434 552 495 500Q560 551 656 551Q744 551 809 515T908 411T943 253Q943 236 942 227H572L573 219Q580 184 610 163ZM741 362T718 388T657 415Q622 415 599 390T568 322H740Q741 362 718 388ZM243 229T227
216T210 177Q210 151 226 136T272 120Q301 120 325 134T366 174L365 229H273Q243 229 227 216Z" />
<glyph unicode="&#xe7;" glyph-name="ccedilla" horiz-adv-x="562" d="M529 76T476 41T349 -4L330 -57Q413 -78 413 -139Q413 -189 375 -214T280 -239Q223 -239 166 -219L194 -134Q214 -142 242 -142Q260 -142 271 -137T283 -122Q283 -111 267 -105T227 -99H207L238
-2Q137 17 78 89T19 270Q19 354 54 417T154 516T304 551Q389 551 454 514T555 409L400 333Q386 359 364 373T313 387Q273 387 248 355T223 271Q223 218 247 186T313 153Q374 153 399 213L556 134Q529 76 476 41Z" />
<glyph unicode="&#xe8;" glyph-name="egrave" horiz-adv-x="609" d="M440 551T515 472T590 254Q590 233 589 223H223Q235 184 262 163T329 142Q392 142 449 194L554 91Q511 43 450 18T312 -7Q222 -7 156 27T55 124T19 270Q19 354 55 417T156 516T306 551Q440 551
515 472ZM391 362T368 388T308 414Q273 414 250 389T219 322H390Q391 362 368 388ZM286 775L395 605L262 595L127 717L286 775Z" />
<glyph unicode="&#xe9;" glyph-name="eacute" horiz-adv-x="609" d="M440 551T515 472T590 254Q590 233 589 223H223Q235 184 262 163T329 142Q392 142 449 194L554 91Q511 43 450 18T312 -7Q222 -7 156 27T55 124T19 270Q19 354 55 417T156 516T306 551Q440 551
515 472ZM391 362T368 388T308 414Q273 414 250 389T219 322H390Q391 362 368 388ZM329 775L487 717L334 595L202 605L329 775Z" />
<glyph unicode="&#xea;" glyph-name="ecircumflex" horiz-adv-x="609" d="M440 551T515 472T590 254Q590 233 589 223H223Q235 184 262 163T329 142Q392 142 449 194L554 91Q511 43 450 18T312 -7Q222 -7 156 27T55 124T19 270Q19 354 55 417T156 516T306 551Q440
551 515 472ZM391 362T368 388T308 414Q273 414 250 389T219 322H390Q391 362 368 388ZM498 609H364L302 678L239 609H105L215 766H388L498 609Z" />
<glyph unicode="&#xeb;" glyph-name="edieresis" horiz-adv-x="609" d="M440 551T515 472T590 254Q590 233 589 223H223Q235 184 262 163T329 142Q392 142 449 194L554 91Q511 43 450 18T312 -7Q222 -7 156 27T55 124T19 270Q19 354 55 417T156 516T306 551Q440
551 515 472ZM391 362T368 388T308 414Q273 414 250 389T219 322H390Q391 362 368 388ZM240 774T263 751T286 691Q286 655 263 632T204 608Q168 608 145 631T122 691Q122 727 145 750T204 774Q240 774 263 751ZM437 774T460 751T483 691Q483 655 460 632T401 608Q365
608 342 631T319 691Q319 727 342 750T401 774Q437 774 460 751Z" />
<glyph unicode="&#xec;" glyph-name="igrave" horiz-adv-x="324" d="M61 544H263V0H61V544ZM147 775L256 605L123 595L-12 717L147 775Z" />
<glyph unicode="&#xed;" glyph-name="iacute" horiz-adv-x="324" d="M61 544H263V0H61V544ZM190 775L348 717L195 595L63 605L190 775Z" />
<glyph unicode="&#xee;" glyph-name="icircumflex" horiz-adv-x="324" d="M61 544H263V0H61V544ZM359 609H225L163 678L100 609H-34L76 766H249L359 609Z" />
<glyph unicode="&#xef;" glyph-name="idieresis" horiz-adv-x="324" d="M61 544H263V0H61V544ZM103 774T126 751T149 691Q149 655 126 632T67 608Q31 608 8 631T-15 691Q-15 727 8 750T67 774Q103 774 126 751ZM296 774T319 751T342 691Q342 655 319 632T260 608Q224
608 201 631T178 691Q178 727 201 750T260 774Q296 774 319 751Z" />
<glyph unicode="&#xf0;" glyph-name="eth" horiz-adv-x="611" d="M513 556T552 471T592 294Q592 203 554 134T447 28T284 -10Q203 -10 142 19T48 101T15 226Q15 292 43 342T122 419T242 447Q287 447 328 434T394 398Q392 439 366 479T294 557L117 477L82 549L217
611Q158 645 92 670L227 751Q303 723 368 680L512 746L547 672L440 623Q513 556 552 471ZM330 157T353 178T376 235Q376 270 353 291T291 313Q253 313 231 293T208 236Q208 200 230 179T291 157Q330 157 353 178Z" />
<glyph unicode="&#xf1;" glyph-name="ntilde" horiz-adv-x="678" d="M494 552T538 527T607 454T632 345V0H430V287Q430 327 409 351T352 375Q311 374 287 345T263 269V0H61V544H263V460Q292 505 335 528T436 552Q494 552 538 527ZM550 678T526 637T447 596Q423
596 403 603T357 623Q327 639 314 639Q288 639 286 599H177Q177 683 201 724T280 766Q304 766 324 759T372 739Q383 733 394 729T412 724Q427 724 434 733T442 763H550Q550 678 526 637Z" />
<glyph unicode="&#xf2;" glyph-name="ograve" horiz-adv-x="643" d="M413 551T481 517T586 419T624 272Q624 189 587 126T481 28T322 -7Q231 -7 163 27T57 125T19 272Q19 356 56 419T162 516T322 551Q413 551 481 517ZM277 391T250 358T223 270Q223 215 250 182T322
149Q366 149 393 182T420 270Q420 324 393 357T322 391Q277 391 250 358ZM306 775L415 605L282 595L147 717L306 775Z" />
<glyph unicode="&#xf3;" glyph-name="oacute" horiz-adv-x="643" d="M413 551T481 517T586 419T624 272Q624 189 587 126T481 28T322 -7Q231 -7 163 27T57 125T19 272Q19 356 56 419T162 516T322 551Q413 551 481 517ZM277 391T250 358T223 270Q223 215 250 182T322
149Q366 149 393 182T420 270Q420 324 393 357T322 391Q277 391 250 358ZM349 775L507 717L354 595L222 605L349 775Z" />
<glyph unicode="&#xf4;" glyph-name="ocircumflex" horiz-adv-x="643" d="M413 551T481 517T586 419T624 272Q624 189 587 126T481 28T322 -7Q231 -7 163 27T57 125T19 272Q19 356 56 419T162 516T322 551Q413 551 481 517ZM277 391T250 358T223 270Q223 215 250
182T322 149Q366 149 393 182T420 270Q420 324 393 357T322 391Q277 391 250 358ZM518 609H384L322 678L259 609H125L235 766H408L518 609Z" />
<glyph unicode="&#xf5;" glyph-name="otilde" horiz-adv-x="643" d="M413 551T481 517T586 419T624 272Q624 189 587 126T481 28T322 -7Q231 -7 163 27T57 125T19 272Q19 356 56 419T162 516T322 551Q413 551 481 517ZM277 391T250 358T223 270Q223 215 250 182T322
149Q366 149 393 182T420 270Q420 324 393 357T322 391Q277 391 250 358ZM515 678T491 637T412 596Q388 596 368 603T322 623Q292 639 279 639Q253 639 251 599H142Q142 683 166 724T245 766Q269 766 289 759T337 739Q348 733 359 729T377 724Q392 724 399 733T407
763H515Q515 678 491 637Z" />
<glyph unicode="&#xf6;" glyph-name="odieresis" horiz-adv-x="643" d="M413 551T481 517T586 419T624 272Q624 189 587 126T481 28T322 -7Q231 -7 163 27T57 125T19 272Q19 356 56 419T162 516T322 551Q413 551 481 517ZM277 391T250 358T223 270Q223 215 250
182T322 149Q366 149 393 182T420 270Q420 324 393 357T322 391Q277 391 250 358ZM260 774T283 751T306 691Q306 655 283 632T224 608Q188 608 165 631T142 691Q142 727 165 750T224 774Q260 774 283 751ZM457 774T480 751T503 691Q503 655 480 632T421 608Q385
608 362 631T339 691Q339 727 362 750T421 774Q457 774 480 751Z" />
<glyph unicode="&#xf7;" glyph-name="divide" horiz-adv-x="515" d="M294 593T317 570T341 508Q341 470 317 446T256 422Q219 422 195 446T170 508Q170 545 194 569T256 593Q294 593 317 570ZM31 391H484V265H31V391ZM294 234T317 211T341 149Q341 111 317 87T256
63Q219 63 195 87T170 149Q170 186 194 210T256 234Q294 234 317 211Z" />
<glyph unicode="&#xf8;" glyph-name="oslash" horiz-adv-x="643" d="M569 458T596 401T624 272Q624 189 587 126T481 28T322 -7Q249 -7 193 15L127 -83H40L129 48Q76 85 48 142T19 272Q19 356 56 419T162 516T322 551Q394 551 454 528L521 627H608L518 494Q569
458 596 401ZM210 226T226 192L366 398Q346 407 322 407Q271 407 241 370T210 270Q210 226 226 192ZM372 132T403 169T434 270Q434 312 418 346L278 141Q298 132 322 132Q372 132 403 169Z" />
<glyph unicode="&#xf9;" glyph-name="ugrave" horiz-adv-x="668" d="M607 544V0H405V81Q377 37 335 14T238 -9Q181 -9 138 16T70 89T46 199V544H248V256Q248 216 268 193T321 169Q360 170 382 199T405 275V544H607ZM318 775L427 605L294 595L159 717L318 775Z" />
<glyph unicode="&#xfa;" glyph-name="uacute" horiz-adv-x="668" d="M607 544V0H405V81Q377 37 335 14T238 -9Q181 -9 138 16T70 89T46 199V544H248V256Q248 216 268 193T321 169Q360 170 382 199T405 275V544H607ZM361 775L519 717L366 595L234 605L361 775Z" />
<glyph unicode="&#xfb;" glyph-name="ucircumflex" horiz-adv-x="668" d="M607 544V0H405V81Q377 37 335 14T238 -9Q181 -9 138 16T70 89T46 199V544H248V256Q248 216 268 193T321 169Q360 170 382 199T405 275V544H607ZM530 609H396L334 678L271 609H137L247
766H420L530 609Z" />
<glyph unicode="&#xfc;" glyph-name="udieresis" horiz-adv-x="668" d="M607 544V0H405V81Q377 37 335 14T238 -9Q181 -9 138 16T70 89T46 199V544H248V256Q248 216 268 193T321 169Q360 170 382 199T405 275V544H607ZM272 774T295 751T318 691Q318 655 295 632T236
608Q200 608 177 631T154 691Q154 727 177 750T236 774Q272 774 295 751ZM469 774T492 751T515 691Q515 655 492 632T433 608Q397 608 374 631T351 691Q351 727 374 750T433 774Q469 774 492 751Z" />
<glyph unicode="&#xfd;" glyph-name="yacute" horiz-adv-x="605" d="M353 -126T297 -164T159 -203Q109 -203 67 -189T-16 -143L68 -8Q87 -25 104 -32T141 -39Q183 -39 200 -4L210 15L-15 544H192L311 211L412 544H613L385 -46Q353 -126 297 -164ZM330 775L488
717L335 595L203 605L330 775Z" />
<glyph unicode="&#xfe;" glyph-name="thorn" horiz-adv-x="688" d="M324 551T417 551Q492 551 549 516T637 417T669 269Q669 186 639 124T552 27T422 -7Q374 -7 335 11T268 64V-194H66V742H268V481Q324 551 417 551ZM322 395T295 362T268 274Q268 220 295 187T366
153Q411 153 438 186T465 274Q465 328 438 361T366 395Q322 395 295 362Z" />
<glyph unicode="&#xff;" glyph-name="ydieresis" horiz-adv-x="605" d="M353 -126T297 -164T159 -203Q109 -203 67 -189T-16 -143L68 -8Q87 -25 104 -32T141 -39Q183 -39 200 -4L210 15L-15 544H192L311 211L412 544H613L385 -46Q353 -126 297 -164ZM241 774T264
751T287 691Q287 655 264 632T205 608Q169 608 146 631T123 691Q123 727 146 750T205 774Q241 774 264 751ZM438 774T461 751T484 691Q484 655 461 632T402 608Q366 608 343 631T320 691Q320 727 343 750T402 774Q438 774 461 751Z" />
<glyph unicode="&#x2013;" glyph-name="endash" horiz-adv-x="409" d="M0 371H409V245H0V371Z" />
<glyph unicode="&#x2014;" glyph-name="emdash" horiz-adv-x="627" d="M0 371H627V245H0V371Z" />
<glyph unicode="&#x2018;" glyph-name="quoteleft" horiz-adv-x="254" d="M183 590T192 571T202 530Q202 489 175 463T107 436Q68 436 41 461T14 529Q14 564 39 603L127 742H222L165 602Q183 590 192 571Z" />
<glyph unicode="&#x2019;" glyph-name="quoteright" horiz-adv-x="254" d="M168 742T195 717T222 649Q222 614 197 575L109 436H14L71 576Q53 588 44 607T34 648Q34 689 61 715T129 742Q168 742 195 717Z" />
<glyph unicode="&#x201a;" glyph-name="quotesinglbase" horiz-adv-x="254" d="M168 180T195 155T222 87Q222 52 197 13L109 -126H14L71 14Q53 26 44 45T34 86Q34 127 61 153T129 180Q168 180 195 155Z" />
<glyph unicode="&#x201c;" glyph-name="quotedblleft" horiz-adv-x="458" d="M183 590T192 571T202 530Q202 489 175 463T107 436Q68 436 41 461T14 529Q14 564 39 603L127 742H222L165 602Q183 590 192 571ZM387 590T396 571T406 530Q406 489 379 463T311 436Q272
436 245 461T218 529Q218 564 243 603L331 742H426L369 602Q387 590 396 571Z" />
<glyph unicode="&#x201d;" glyph-name="quotedblright" horiz-adv-x="458" d="M168 742T195 717T222 649Q222 614 197 575L109 436H14L71 576Q53 588 44 607T34 648Q34 689 61 715T129 742Q168 742 195 717ZM372 742T399 717T426 649Q426 614 401 575L313 436H218L275
576Q257 588 248 607T238 648Q238 689 265 715T333 742Q372 742 399 717Z" />
<glyph unicode="&#x201e;" glyph-name="quotedblbase" horiz-adv-x="458" d="M168 180T195 155T222 87Q222 52 197 13L109 -126H14L71 14Q53 26 44 45T34 86Q34 127 61 153T129 180Q168 180 195 155ZM372 180T399 155T426 87Q426 52 401 13L313 -126H218L275 14Q257
26 248 45T238 86Q238 127 265 153T333 180Q372 180 399 155Z" />
<glyph unicode="&#x2022;" glyph-name="bullet" horiz-adv-x="350" d="M237 421T276 382T316 280Q316 217 277 178T174 138Q112 138 73 177T33 280Q33 342 72 381T174 421Q237 421 276 382Z" />
<glyph unicode="&#x2039;" glyph-name="guilsinglleft" horiz-adv-x="283" d="M114 459H276L170 270L276 80H114L-9 270L114 459Z" />
<glyph unicode="&#x203a;" glyph-name="guilsinglright" horiz-adv-x="283" d="M169 80H7L113 269L7 459H169L292 269L169 80Z" />
</font>
</defs>
</svg>
