<svg xmlns="http://www.w3.org/2000/svg"><defs><font id="Montserrat" horiz-adv-x="594"><font-face font-family="Montserrat" panose-1="0 0 5 0 0 0 0 0 0 0" ascent="968" descent="-251" alphabetic="0"/><glyph glyph-name="space" horiz-adv-x="262"/><glyph unicode="!" glyph-name="exclam" horiz-adv-x="206" d="M70 690h90V519l-15-304H84L70 519v171zm68-584l15-16 16-41q0-25-15-41T115-9Q92-9 76 7T60 49q0 25 16 41t39 16q23 0 38-16z"/><glyph unicode="&quot;" glyph-name="quotedbl" horiz-adv-x="334" d="M60 700h73V467H60v233zm141 0h73V467h-73v233z"/><glyph unicode="#" glyph-name="numbersign" horiz-adv-x="721" d="M682 442H537l-23-190h141l-6-71H505L483 0h-70l22 181H243L221 0h-70l22 181H32l6 71h144l23 190H64l6 71h144l23 187h71l-23-187h191l23 187h70l-23-187h142l-6-71zM444 252l23 190H276l-24-190h192z"/><glyph unicode="$" glyph-name="dollar" horiz-adv-x="616" d="M177 491l22-23 54-37 89-32q71-22 115-42t75-59 31-105q0-81-58-133T349-4v-133h-73V-5q-69 5-133 34T29 104l43 83q50-49 112-75t122-27q70 0 110 27t41 75q0 37-22 61t-55 38-91 31q-70 21-114 41t-74 59-31 103q0 77 56 126t150 60v121h73V707q55-4 107-22t93-45l-40-86q-49 31-101 46t-97 16q-61 0-97-23t-37-65q0-37 22-60z"/><glyph unicode="%" glyph-name="percent" horiz-adv-x="955" d="M307 702l48-55 48-153q0-98-48-153t-133-56q-85 0-133 55T41 494q0 98 48 153t133 55q85 0 133-55zm-141-56l-30-39-31-113q0-73 30-112t87-40q56 0 86 39t31 113q0 73-30 112t-87 40q-56 0-86-39zm528 54h76L251 0h-77l520 700zm124-286l48-55 48-153q0-98-48-153T733-3q-85 0-133 55t-48 154q0 98 48 153t133 55q85 0 133-55zm-141-56l-30-39-31-113q0-73 30-112t87-40q56 0 86 39t31 113q0 73-30 112t-87 40q-56 0-86-39z"/><glyph unicode="&amp;" glyph-name="ampersand" horiz-adv-x="655" d="M599-15L485 97q-47-49-101-75T271-4q-59 0-108 25T86 90 57 190q0 68 41 112t115 84q-36 47-53 86t-17 78q0 68 49 111t127 43q75 0 122-40t47-103q0-45-23-79t-59-59-90-53q50-58 161-168 40 61 67 132l62-46q-31-74-76-138L648 35l-49-50zM219 496l57-78q67 35 101 66t35 76q0 38-25 61t-67 23q-46 0-73-26t-28-67q0-55 57-133zM357 68l77 80Q316 265 253 337q-56-31-86-64t-31-77q0-56 40-92t98-36q83 0 160 80z"/><glyph unicode="'" glyph-name="quotesingle" horiz-adv-x="193" d="M60 700h73V467H60v233z"/><glyph unicode="(" glyph-name="parenleft" horiz-adv-x="304" d="M227 656l-30-112-31-235q0-123 30-235t87-198h-86q-58 85-89 196T77 309q0 125 31 236t89 197h86q-56-86-86-198z"/><glyph unicode=")" glyph-name="parenright" horiz-adv-x="304" d="M107 742q58-85 89-196t31-237q0-125-31-236t-89-197H21q56 86 86 198t31 235q0 123-30 235T21 742h86z"/><glyph unicode="*" glyph-name="asterisk" horiz-adv-x="337" d="M143 721h51l-1-106 92 54 25-47-93-52 93-52-25-47-92 54 1-106h-51l1 107-92-54-26 46 93 52-93 52 26 48 92-55-1 106z"/><glyph unicode="+" glyph-name="plus" horiz-adv-x="494" d="M458 357v-67H279V112h-63v178H36v67h180v178h63V357h179z"/><glyph unicode="," glyph-name="comma" horiz-adv-x="204" d="M126 103l15-15 16-40q0-11-4-23T143 2L89-112H38L78 1Q64 8 57 20t-7 28q0 24 15 39t39 16q22 0 37-15z"/><glyph unicode="-" glyph-name="hyphen" horiz-adv-x="366" d="M63 337h239v-67H63v67z"/><glyph unicode="." glyph-name="period" horiz-adv-x="207" d="M127 106l15-16 16-41q0-25-15-41T104-9Q81-9 65 7T49 49q0 25 16 41t39 16q23 0 38-16z"/><glyph unicode="/" glyph-name="slash" horiz-adv-x="323" d="M299 819h81L65-120h-80l314 939z"/><glyph unicode="0" glyph-name="zero" horiz-adv-x="711" d="M503 704l76-91 76-263q0-171-76-263T362-5Q220-5 145 87T69 350q0 171 75 262t218 92q141 0 217-91zm-335-76V350q0-138 49-208t145-70q96 0 145 70t49 208q0 278-194 278T168 350z"/><glyph unicode="1" glyph-name="one" horiz-adv-x="369" d="M6 700h255V0h-96v613H6v87z"/><glyph unicode="2" glyph-name="two" horiz-adv-x="578" d="M544 87V0H38v74l271 281q44 44 70 87t26 76q0 47-36 74t-101 27q-49 0-102-22t-96-63l-41 73q57 46 121 71t130 26q102 0 163-47t62-126q0-93-130-228L164 87h380z"/><glyph unicode="3" glyph-name="three" horiz-adv-x="585" d="M410 397l62-49 62-132q0-65-33-115t-95-78T262-5q-66 0-132 20T15 68l41 78q42-33 94-51t106-18q86 0 135 37t49 99q0 62-49 94t-138 33h-96v61l215 212H49l-1 87h450v-61L263 406l42-3q105-6 167-55z"/><glyph unicode="4" glyph-name="four" horiz-adv-x="591" d="M561 266v-86H453V0h-90v180H16v74l250 446h94L120 266h243v179h90V266h108z"/><glyph unicode="5" glyph-name="five" horiz-adv-x="615" d="M394 439l58-27 90-75 32-108q0-70-32-123t-93-82T310-5q-62 0-130 21T57 74l39 77q45-34 99-52t106-18q79 0 125 38t46 103q0 61-46 95t-131 35q-31 0-90-4t-95-10v362h435v-87H200V435q47 4 117 4 77 0 135-27z"/><glyph unicode="6" glyph-name="six" horiz-adv-x="637" d="M490 601l-42 11-84 12q-101 0-155-70t-54-192q0-19 1-29 26 57 78 87t125 30q105 0 165-60t61-162q0-71-30-123t-85-81T342-5q-87 0-150 40T95 151 61 335q0 111 36 194t103 129 157 46q50 0 105-14t99-37l-38-73q-33 21-75 32zM291 373l-38-20-58-55-20-74q-1-35 17-68t54-55 90-22q72 0 115 40t44 110q0 66-41 105t-112 39q-51 0-89-20z"/><glyph unicode="7" glyph-name="seven" horiz-adv-x="567" d="M14 700h524v-75L233 0H131l299 613H101l-1-101H14v188z"/><glyph unicode="8" glyph-name="eight" horiz-adv-x="636" d="M425 704l61-47 61-131q0-52-28-91t-80-61q67-21 105-67t38-111q0-93-70-147T320-5Q199-5 129 48T58 194q0 65 39 112t108 68q-54 23-83 62t-30 93q0 81 61 128t166 47q106 0 167-47zm-174-70l-38-30-39-83q0-54 38-84t108-30q69 0 107 30t38 84q0 53-38 83t-107 30q-69 0-107-30zm-12-303l-45-33-45-93q0-63 45-98t126-35q80 0 125 35t46 97q0 59-45 93t-127 34q-80 0-125-33z"/><glyph unicode="9" glyph-name="nine" horiz-adv-x="634" d="M153 99l41-11 83-12q100 0 153 70t54 193q0 19-1 29-25-58-76-88t-125-30q-104 0-164 60T58 472q0 71 30 123t84 81 127 28q86 0 149-40t96-116 34-182q0-111-36-195T439 41 283-5Q234-5 179 9T81 47l38 73q34-21 75-32zm81 522l-43-40-43-110q0-66 41-105t110-39q51 0 88 20t58 55 20 75q0 34-17 67t-54 55-89 22q-71 0-114-40z"/><glyph unicode=":" glyph-name="colon" horiz-adv-x="207" d="M127 403l15-16 16-41q0-25-15-41t-39-17q-23 0-39 16t-16 42q0 25 16 41t39 16q23 0 38-16zm0-297l15-16 16-41q0-25-15-41T104-9Q81-9 65 7T49 49q0 25 16 41t39 16q23 0 38-16z"/><glyph unicode=";" glyph-name="semicolon" horiz-adv-x="206" d="M127 403l15-16 16-41q0-25-15-41t-39-17q-23 0-39 16t-16 42q0 25 16 41t39 16q23 0 38-16zm-1-300l15-15 16-40q0-11-4-23T143 2L89-112H38L78 1Q64 8 57 20t-7 28q0 24 15 39t39 16q22 0 37-15z"/><glyph unicode="&lt;" glyph-name="less" horiz-adv-x="494" d="M458 554v-74L100 326l358-154V98L36 284v84l422 186z"/><glyph unicode="=" glyph-name="equal" horiz-adv-x="494" d="M36 460h422v-66H36v66zm0-207h422v-66H36v66z"/><glyph unicode="&gt;" glyph-name="greater" horiz-adv-x="494" d="M36 102v74l358 154L36 484v74l422-186v-84L36 102z"/><glyph unicode="?" glyph-name="question" horiz-adv-x="432" d="M26 593l54 49 143 50q88 0 141-42t53-122q0-39-12-68t-32-49-49-46q-29-25-45-42t-27-43-12-57h-73q0 40 12 70t29 49 46 46q38 34 56 60t18 67q0 47-30 71t-83 25q-53 0-84-27t-33-80l-75 1q3 88 57 137zm199-487l15-16 16-41q0-25-15-41T202-9q-23 0-39 16t-16 42q0 25 16 41t39 16q23 0 38-16z"/><glyph unicode="@" glyph-name="at" horiz-adv-x="981" d="M718 109l14-15 38-16q28 0 51 24t37 67 14 98q0 105-46 189T694 588t-198 48q-107 0-196-49T160 453t-51-187q0-100 49-180T292-40t191-46q46 0 98 14t92 42l34-63q-43-29-106-47t-118-18q-126 0-227 55T96 49 38 266q0 123 60 223t165 158 233 58q127 0 229-56t161-155 58-224q0-76-23-133t-64-89-96-32q-45 0-74 22t-36 65l-2 28q-30-50-78-76T463 29q-63 0-117 30t-86 86-32 124q0 67 28 122t81 88 118 32q43 0 79-14t62-35 34-40v81h88V139q0-30 14-45zM428 426l-33-20-53-56-19-77q0-44 19-80t53-58 78-21q67 0 109 45t42 113q0 43-19 78t-54 55-80 21q-43 0-76-20z"/><glyph unicode="A" glyph-name="A" horiz-adv-x="726" d="M620 0l-74 170H177L104 0H3l311 700h100L724 0H620zM215 257h294L361 597 215 257z"/><glyph unicode="B" glyph-name="B" horiz-adv-x="712" d="M506 700l61-46 62-129q0-60-34-101t-93-56q73-11 114-58t42-119q0-90-67-140T404 0H100v700h299q107 0 168-46zm-47-297l35 27 36 79q0 50-35 77t-101 26H196V403h198q65 0 100 27zm13-316l44 30 44 86q0 53-44 83t-122 30H196V88h198q78-1 122 29z"/><glyph unicode="C" glyph-name="C" horiz-adv-x="699" d="M567 574l-53 23-109 24q-74 0-136-36t-98-97-36-136q0-73 36-135t98-98 136-36q55 0 108 22t94 62l58-63q-53-52-123-81T400-7Q300-7 217 40T86 170 38 351q0 98 48 179t133 129 185 47q73 0 141-27t119-78l-57-69q-40 42-93 65z"/><glyph unicode="D" glyph-name="D" horiz-adv-x="783" d="M487 700l82-45 130-126 47-179q0-99-47-179T568 46 382 0H100v700h285q102 0 184-45zM460 87l59 34 94 94 35 134q0 75-35 135t-95 94-135 35H196V87h191q73 0 132 34z"/><glyph unicode="E" glyph-name="E" horiz-adv-x="653" d="M100 700h486v-87H196V397h349v-87H196V87h402V0H100v700z"/><glyph unicode="F" glyph-name="F" horiz-adv-x="568" d="M100 700h456l-1-87H196V383h323v-87H196V0h-96v700z"/><glyph unicode="G" glyph-name="G" horiz-adv-x="751" d="M584 342h85V85q-53-42-124-67T404-7Q303-7 219 40T87 170 38 351q0 98 49 179t134 129 188 47q73 0 142-26t121-71l-55-70q-42 39-96 60t-112 22q-75 0-138-36t-99-98-37-136q0-74 37-136t100-99 138-37q44 0 89 14t85 41v208z"/><glyph unicode="H" glyph-name="H" horiz-adv-x="793" d="M100 700h96V388h400v312h97V0h-97v301H196V0h-96v700z"/><glyph unicode="I" glyph-name="I" horiz-adv-x="296" d="M100 700h96V0h-96v700z"/><glyph unicode="J" glyph-name="J" horiz-adv-x="490" d="M406 109l-55-56L198-4Q139-4 88 22T-1 96l47 74q33-39 72-59t79-21q54 0 83 32t29 93v397H62v88h344V212q0-103-55-159z"/><glyph unicode="K" glyph-name="K" horiz-adv-x="707" d="M687 0H571L325 323 196 183V0h-96v700h96V307l358 393h115L392 398 687 0z"/><glyph unicode="L" glyph-name="L" horiz-adv-x="524" d="M100 700h96V87h306V0H100v700z"/><glyph unicode="M" glyph-name="M" horiz-adv-x="939" d="M100 700h114l256-492 254 492h115V0h-90l-1 559L499 74h-59L189 559V0h-89v700z"/><glyph unicode="N" glyph-name="N" horiz-adv-x="794" d="M598 700h95V0h-97L196 542V0h-96v700h97l401-543v543z"/><glyph unicode="O" glyph-name="O" horiz-adv-x="812" d="M507 706l84-47 134-128 49-180q0-98-49-180T592 41 406-7Q305-7 221 40T87 170 38 351q0 98 49 179t133 129 186 47q101 0 185-47zm-173-86l-62-36-100-97-37-136q0-74 37-136t99-98 136-37q73 0 134 36t98 99 37 136q0 74-36 135t-98 98-135 36q-73 0-135-36z"/><glyph unicode="P" glyph-name="P" horiz-adv-x="671" d="M501 700l71-62 72-174q0-117-72-181t-202-65H196V0h-96v700h270q131 0 202-62zm-45-395l48 39 48 117q0 75-48 113t-138 39l-170-1V305h170q90 0 138 39z"/><glyph unicode="Q" glyph-name="Q" horiz-adv-x="822" d="M815-71q-40-36-88-56t-95-20q-63 0-119 36T412-7h-6Q305-7 221 40T87 170 38 351q0 98 49 179t133 129 186 47q101 0 185-47t134-128 49-180q0-81-33-151T648 80 513 8q66-71 130-71 58 0 132 61l40-69zM135 277l37-62 99-98 136-37q73 0 134 36t98 99 37 136q0 74-36 135t-98 98-135 36q-73 0-135-36t-100-97-37-136q0-74 37-136z"/><glyph unicode="R" glyph-name="R" horiz-adv-x="723" d="M552 0L413 220q-24-2-39-2H196V0h-96v700h274q133 0 205-61t73-175q0-85-39-143t-114-84L662 0H552zM374 305q90 0 138 39t48 117q0 75-48 113t-138 39H196V305h178z"/><glyph unicode="S" glyph-name="S" horiz-adv-x="616" d="M460 585l-52 15-97 16q-61 0-97-23t-37-65q0-37 22-60t54-37 89-32q71-22 115-42t75-59 31-105q0-60-32-105t-91-69T305-6q-77 0-150 30T29 104l43 83q50-49 112-75t122-27q70 0 110 27t41 75q0 37-22 61t-55 38-91 31q-70 21-114 41t-74 59-31 103q0 56 31 99t87 66 130 23q63 0 123-18t108-50l-40-86q-49 31-101 46z"/><glyph unicode="T" glyph-name="T" horiz-adv-x="567" d="M10 700h547v-88H331V0h-96v612H10v88z"/><glyph unicode="U" glyph-name="U" horiz-adv-x="762" d="M181 189l53-54 148-55q93 0 146 54t53 152v414h96V286q0-137-78-215T382-7Q243-7 164 71T85 286v414h96V286q0-97 53-151z"/><glyph unicode="V" glyph-name="V" horiz-adv-x="676" d="M5 700h103l231-593 231 593h101L387 0H287L5 700z"/><glyph unicode="W" glyph-name="W" horiz-adv-x="1046" d="M942 700h100L805 0H705L524 578 340 0h-99L5 700h103l185-597 184 597h96l185-597 184 597z"/><glyph unicode="X" glyph-name="X" horiz-adv-x="677" d="M37 700h112l184-261 185 261h113L394 364 651 0H536L333 283 132 0H19l256 360L37 700z"/><glyph unicode="Y" glyph-name="Y" horiz-adv-x="630" d="M627 700L365 240V0h-96v236L3 700h98l216-357 212 357h98z"/><glyph unicode="Z" glyph-name="Z" horiz-adv-x="662" d="M54 700h563v-71L169 87h453l-1-87H41v71l448 542H53l1 87z"/><glyph unicode="[" glyph-name="bracketleft" horiz-adv-x="319" d="M88 742h209v-76H172V-48h125v-76H88v866z"/><glyph unicode="\" glyph-name="backslash" horiz-adv-x="323" d="M24 819l314-939h-80L-57 819h81z"/><glyph unicode="]" glyph-name="bracketright" horiz-adv-x="319" d="M231 742v-866H22v76h125v714H22v76h209z"/><glyph unicode="^" glyph-name="asciicircum" horiz-adv-x="524" d="M490 131h-74L262 467 108 131H34l186 396h84l186-396z"/><glyph unicode="_" glyph-name="underscore" horiz-adv-x="560" d="M0-146h559v-58H0v58z"/><glyph unicode="`" glyph-name="grave" horiz-adv-x="330" d="M161 752l107-130-79-10-124 98 96 42z"/><glyph unicode="a" glyph-name="a" horiz-adv-x="581" d="M414 0v74Q355-4 229-4q-55 0-96 21T69 75t-23 83q0 71 52 112t147 43h168v25q0 56-34 86t-101 31q-80 0-163-57l-39 64q57 37 105 53t116 17q99 0 153-48t55-136l1-348h-92zM313 73l45 31 55 84v53H258q-63 0-93-19t-31-60q0-41 31-65t83-24q65 0 110 31z"/><glyph unicode="b" glyph-name="b" horiz-adv-x="678" d="M459 532l58-34 90-95 32-140q0-78-31-138t-89-94T387-3q-67 0-118 28t-80 80V0H96v742h93V424q29 52 79 80t117 28q74 0 132-34zM418 78l40 24 63 67 23 97q0 53-23 96t-63 67-91 24q-51 0-91-24t-64-67-23-96q0-55 23-97t63-67 92-24q51 0 91 24z"/><glyph unicode="c" glyph-name="c" horiz-adv-x="562" d="M399 449h-88q-52 0-92-23t-64-65-23-97q0-55 22-97t62-65 91-24q51 0 92 17t68 49l53-54q-36-45-91-69T303-3q-77 0-137 34t-93 94-34 139q0 78 33 139t94 95 137 34q67 0 120-20t90-60l-51-64q-63 61-151 61z"/><glyph unicode="d" glyph-name="d" horiz-adv-x="680" d="M584 742V0h-93v105q-30-53-80-81T293-5q-75 0-132 34t-90 96-32 141q0 78 32 138t89 95 132 34q68 0 119-28t80-81v318h93zM364 75l40 24 64 67 23 97q0 55-23 98t-63 67-93 24q-52 0-92-24t-64-68-23-97q0-54 23-97t63-67 93-24q52 0 92 24z"/><glyph unicode="e" glyph-name="e" horiz-adv-x="588" d="M426 532l63-72 63-202q0-20-1-30H133q11-71 59-113t120-42q47 0 87 17t71 48l51-53q-39-42-94-65T305-3q-78 0-138 33t-94 95-34 139q0 78 33 138t94 95 137 35q123 0 186-72zm42-232q-4 72-48 113t-116 42q-70 0-116-42t-56-113h336z"/><glyph unicode="f" glyph-name="f" horiz-adv-x="342" d="M250 665l-24-22-24-63v-69h146v-71H202V0h-93v440H40v71h69v57q0 58 24 98t65 61 86 21q44 0 92-24l-22-76q-36 17-68 17-36 0-60-22z"/><glyph unicode="g" glyph-name="g" horiz-adv-x="638" d="M559 529V54q0-76-33-133t-95-87-142-31q-117 0-218 74l41 68q39-32 81-47t92-16q82 0 131 46t49 123v74q-28-48-76-74T279 24q-71 0-125 32t-85 91-30 133q0 74 30 131t84 89 126 32q63 0 110-26t76-74v97h94zM346 99l38 23 59 63 22 92q0 52-21 92t-60 64-87 23q-49 0-87-23t-61-63-22-93q1-78 48-128t122-50q49 0 87 23z"/><glyph unicode="h" glyph-name="h" horiz-adv-x="665" d="M484 532l53-54 53-151V0h-93v302q0 67-37 104t-104 38q-77-1-122-52t-45-132V0H96v742h93V415q53 115 202 117 93 0 146-54z"/><glyph unicode="i" glyph-name="i" horiz-adv-x="274" d="M91 529h93V0H91v529zm71 211l16-17 17-43q0-26-16-43t-42-17q-25 0-41 17t-17 43q0 26 16 43t42 17q25 0 41-17z"/><glyph unicode="j" glyph-name="j" horiz-adv-x="263" d="M-15-116l26-2q38-1 58 26t20 79v542h94V-26q0-82-39-126T32-197q-45 0-91 18l22 71q22-8 48-10zm175 856l16-17 17-43q0-26-16-43t-42-17q-25 0-41 17t-17 43q0 26 16 43t42 17q25 0 41-17z"/><glyph unicode="k" glyph-name="k" horiz-adv-x="582" d="M461 0L292 257 189 150V0H96v742h93V269l256 260h109L357 324 573 0H461z"/><glyph unicode="l" glyph-name="l" horiz-adv-x="285" d="M96 742h93V0H96v742z"/><glyph unicode="m" glyph-name="m" horiz-adv-x="1044" d="M865 532l52-55 52-150V0h-94v302q0 67-36 105t-101 38q-75-2-118-53t-43-131V0h-94v302q0 67-36 105t-101 38q-75-2-118-53t-44-131V0H91v529h93V418q52 112 197 114 73 0 121-35t66-98q49 131 206 133 91 0 143-55z"/><glyph unicode="n" glyph-name="n" horiz-adv-x="659" d="M478 532l53-54 53-151V0h-93v302q0 67-37 104t-104 38q-71-1-115-45t-51-116V0H91v529h93V417q53 113 201 115 93 0 146-54z"/><glyph unicode="o" glyph-name="o" horiz-adv-x="621" d="M390 532l61-34 96-94 35-139q0-78-34-139t-96-95T311-3q-80 0-141 34t-96 94-35 140q0 78 34 138t96 95 142 34q79 0 140-34zm-131-81l-40-24-63-66-23-97q0-55 22-98t63-66 93-24q51 0 91 23t63 67 23 98q0 54-22 96t-63 67-92 24q-52 0-92-24z"/><glyph unicode="p" glyph-name="p" horiz-adv-x="678" d="M459 532l58-34 90-95 32-140q0-78-31-138t-89-94T387-3q-67 0-118 28t-80 80v-299H96v723h93V424q29 52 79 80t117 28q74 0 132-34zM418 78l40 24 63 67 23 97q0 53-23 96t-63 67-91 24q-51 0-91-24t-64-67-23-96q0-55 23-97t63-67 92-24q51 0 91 24z"/><glyph unicode="q" glyph-name="q" horiz-adv-x="680" d="M584 529v-723h-93v299q-30-53-80-81T293-5q-75 0-132 34t-90 96-32 141q0 78 32 138t89 95 132 34q68 0 119-28t80-81v105h93zM364 75l40 24 64 67 23 97q0 55-23 98t-63 67-93 24q-52 0-92-24t-64-68-23-97q0-54 23-97t63-67 93-24q52 0 92 24z"/><glyph unicode="r" glyph-name="r" horiz-adv-x="382" d="M210 472l48 29 114 31v-90q-81 3-131-42t-57-121V0H91v529h93V415q26 57 74 86z"/><glyph unicode="s" glyph-name="s" horiz-adv-x="460" d="M347 432l-39 12-76 12q-42 0-67-15t-26-48q0-32 28-48t87-34q55-16 90-32t59-47 25-82q0-75-56-114T231-3q-59 0-114 19T23 70l35 68q33-30 81-48t95-18q46 0 74 17t28 52q0 36-29 54t-90 36q-53 15-86 30t-57 46-24 78q0 74 54 111t135 37q48 0 94-13t81-37l-34-71q-33 20-72 32z"/><glyph unicode="t" glyph-name="t" horiz-adv-x="397" d="M375 35Q314-4 251-4T149 33t-39 114v293H35v71h75v142h94V511h162v-71H204V164q0-44 16-63t48-19q38 0 82 25l25-72z"/><glyph unicode="u" glyph-name="u" horiz-adv-x="649" d="M559 529V0h-94v112Q413-1 269-3q-92 0-144 54T73 202v327h94V227q0-67 36-104t101-38q74 1 117 52t44 132v260h94z"/><glyph unicode="v" glyph-name="v" horiz-adv-x="510" d="M3 529h99L261 92l158 437h94L307 0h-97L3 529z"/><glyph unicode="w" glyph-name="w" horiz-adv-x="876" d="M3 529h97L248 92l146 437h97L638 92l146 437h96L685 0h-97L442 416 296 0h-97L3 529z"/><glyph unicode="x" glyph-name="x" horiz-adv-x="540" d="M31 529h108l131-194 133 194h103L332 271 519 0H410L270 208 123 0H18l190 271L31 529z"/><glyph unicode="y" glyph-name="y" horiz-adv-x="514" d="M251-136l-41-31-98-31q-34 0-62 10t-54 31l40 73q35-25 71-25 60 0 90 68l20 47L-2 529h98l168-424 159 424h95L276-75q-25-61-66-92z"/><glyph unicode="z" glyph-name="z" horiz-adv-x="531" d="M58 529l425-1v-66L163 77l328-1V-1L49 0v66l319 385-310 1v77z"/><glyph unicode="{" glyph-name="braceleft" horiz-adv-x="339" d="M211 374l-12-16-43-34-23-15q10-8 23-15 22-14 32-23t17-24 6-41V23q0-39 22-56t76-17v-76h-35q-80 0-114 28T125-4v216q0 31-11 44t-34 14H51v77h29q23 0 34 13t11 45v216q0 65 34 93t115 29h35v-76q-53 0-75-17t-23-56V410q0-36-12-52z"/><glyph unicode="|" glyph-name="bar" horiz-adv-x="258" d="M93 813h72v-932H93v932z"/><glyph unicode="}" glyph-name="braceright" horiz-adv-x="339" d="M288 347v-77h-29q-23 0-34-13t-11-45V-4q0-66-34-94T65-126H30v76q53 0 75 17t23 56v183q0 26 6 41t16 24 33 23q13 7 23 15l-23 15q-31 18-43 34t-12 52v184q0 39-22 56t-76 17v76h35q80 0 114-28t35-94V405q0-31 11-44t34-14h29z"/><glyph unicode="~" glyph-name="asciitilde" horiz-adv-x="494" d="M425 253h-91q-25 0-46 9t-48 26q-22 13-35 19t-27 6q-42 0-42-53H70q0 127 91 127 22 0 42-8t50-26q24-14 38-20t27-6q41 0 41 53h66q0-127-91-127z"/><glyph glyph-name="uni00A0" horiz-adv-x="262"/><glyph unicode="¡" glyph-name="exclamdown" horiz-adv-x="206" d="M91 422l-15 16-16 41q0 25 15 41t39 17q23 0 39-16t16-42q0-25-16-41t-39-16q-23 0-38 16zm68-584H69V9l15 304h61L159 9v-171z"/><glyph unicode="¢" glyph-name="cent" horiz-adv-x="600" d="M456 11L341-1v-139h-72V-1q-68 7-120 42t-81 93-29 130q0 72 29 130t81 93 120 43v147h72V530q109-11 172-78l-51-64q-63 61-151 61-52 0-92-23t-64-65-23-97q0-55 22-97t62-65 91-24q51 0 92 17t68 49l53-54Q456 11 341-1z"/><glyph unicode="£" glyph-name="sterling" horiz-adv-x="544" d="M222 79h288V0H40v79h86v244H40v54h86v110q0 104 53 160t151 57q56 0 105-24t87-68l-39-74q-31 39-68 59t-76 20q-57 0-87-33t-30-99V377h179v-54H222V79z"/><glyph unicode="¤" glyph-name="currency" horiz-adv-x="714" d="M629 275l-14-41-42-76L675 55 622-2 515 105q-69-50-158-50-88 0-157 50L93-2 39 55l103 104q-27 34-41 75t-15 85q0 88 54 159L39 580l54 57 104-104q72 51 160 51 89 0 161-51l104 104 53-57-101-102q55-69 55-159 0-44-14-85zM411 134l45 25 71 67 27 93q0 50-26 93t-72 68-99 25q-53 0-98-25t-71-68-26-93q0-50 26-92t71-68 98-25q54 0 99 25z"/><glyph unicode="¥" glyph-name="yen" horiz-adv-x="629" d="M626 700L396 294h173v-53H366l-1-1v-64h204v-54H365V0h-96v122H64v54h205v60l-3 5H64v53h171L2 700h98l216-357 212 357h98z"/><glyph unicode="¦" glyph-name="brokenbar" horiz-adv-x="258" d="M93 813h72V466H93v347zm0-584h72v-348H93v348z"/><glyph unicode="§" glyph-name="section" horiz-adv-x="484" d="M326 627h-74q-49 0-78-18t-29-50q0-26 17-43t42-28 71-25q57-18 91-33t60-46 25-77q0-44-32-80t-79-49q50-20 72-47t23-70q0-42-25-75t-70-51-104-19q-60 0-115 19T23-9l30 60q40-33 86-50t94-18q51 0 84 21t33 54q0 26-17 43t-42 28-71 26q-56 17-90 33t-59 45-25 76q0 48 34 81t93 44q-61 24-85 51t-25 70q0 62 52 100t137 39q96 0 178-50l-31-60q-73 43-147 43zM187 385l-29-18-30-51q0-39 39-64t96-26q49 0 77 20t28 55q0 37-36 60t-94 24q-51 0-80-18z"/><glyph unicode="¨" glyph-name="dieresis" horiz-adv-x="350" d="M126 734l15-15 15-40q0-23-15-38t-38-16q-23 0-38 15t-15 39q0 24 15 39t38 16q23 0 38-15zm172 0l15-15 15-40q0-23-15-38t-38-16q-23 0-38 15t-15 39q0 24 15 39t38 16q23 0 38-15z"/><glyph unicode="©" glyph-name="copyright" horiz-adv-x="752" d="M470 689l77-45 123-124 45-170q0-91-45-169T547 56 375 9q-93 0-170 46T83 179 38 348q0 91 45 169t122 125 172 47q93 0 170-45zm-174-51l-66-39-105-106-39-145q0-78 38-144T228 99t147-39q80 0 147 39t105 106 39 145q0 78-38 144T523 599t-146 39q-81 0-147-39zm141-161h-55q-55 0-93-37t-38-90q0-54 38-91t93-38q26 0 52 11t48 30l30-33q-27-26-61-40t-71-15q-50 0-91 23t-65 64-24 88q0 48 24 88t65 63 92 23q36 0 70-14t61-39l-30-35q-45 42-100 42z"/><glyph unicode="ª" glyph-name="ordfeminine" horiz-adv-x="382" d="M262 458v53q-38-56-118-56-49 0-78 26t-29 68q0 42 32 65t91 23h101v18q0 31-20 48t-60 17q-49 0-108-32l-18 47q76 38 141 38 62 0 97-29t34-81l1-205h-66zm-29 44l28 55v44h-88q-35 0-53-12t-19-35q0-23 17-37t48-15q67 0 95 55z"/><glyph unicode="«" glyph-name="guillemotleft" horiz-adv-x="439" d="M145 427h80L118 257 225 88h-80L31 257l114 170zm165 0h80L283 257 390 88h-80L196 257l114 170z"/><glyph unicode="¬" glyph-name="logicalnot" horiz-adv-x="555" d="M476 394V148h-70v180H36v66h440z"/><glyph unicode="­" glyph-name="uni00AD" horiz-adv-x="366" d="M63 337h239v-67H63v67z"/><glyph unicode="®" glyph-name="registered" horiz-adv-x="752" d="M470 689l77-45 123-124 45-170q0-91-45-169T547 56 375 9q-93 0-170 46T83 179 38 348q0 91 45 169t122 125 172 47q93 0 170-45zM455 60l67 39 105 106 39 145q0 78-38 144T523 599t-146 39q-81 0-147-39T125 493 86 348q0-78 38-144T228 99t147-39q80 0 147 39zm66 312l-19-28-56-42 81-117h-57l-68 108q-6-1-19-1h-86V185h-49v346h135q67 0 102-30t36-87q0-42-19-70zm-138-38q44 0 68 21t24 59q0 37-24 56t-68 20h-86V334h86z"/><glyph unicode="¯" glyph-name="overscore" horiz-adv-x="350" d="M32 710h287v-62H32v62z"/><glyph unicode="°" glyph-name="degree" horiz-adv-x="336" d="M242 807l34-34 35-80q0-46-34-79t-82-34q-47 0-81 33t-34 80q0 47 34 80t81 34q47 0 81-34zm-77-44l-21-20-22-50q0-28 21-48t52-21q30 0 51 20t22 49q0 29-21 49t-52 21q-30 0-51-20z"/><glyph unicode="±" glyph-name="plusminus" horiz-adv-x="494" d="M279 419h179v-66H279V178h-63v175H36v66h180v174h63V419zM36 27v67h422V27H36z"/><glyph unicode="²" glyph-name="uni00B2" horiz-adv-x="351" d="M203 596l14 24 15 42q0 26-19 40t-53 15q-28 0-59-14t-58-38l-29 51q35 28 75 43t81 16q61 0 98-28t37-76q0-59-79-135L109 416h216v-56H22v49l157 163q24 24 38 48z"/><glyph unicode="³" glyph-name="uni00B3" horiz-adv-x="348" d="M248 592l33-29 34-78q0-58-42-94t-114-36q-39 0-77 11t-66 32l30 55q22-22 50-33t59-11q43 0 67 20t24 55q0 33-24 51t-68 18H96v39l118 124H35v52h260v-41L171 598l22-1q55-5 88-34z"/><glyph unicode="´" glyph-name="acute" horiz-adv-x="350" d="M183 752l96-42-124-98-79 10 107 130z"/><glyph unicode="µ" glyph-name="uni00B5" horiz-adv-x="672" d="M581 529V0h-94v112Q435-1 291-3q-58 0-101 23v-214H96v371q-1 8-1 25v327h95V206q6-57 42-89t94-32q74 1 117 52t44 132v260h94z"/><glyph unicode="¶" glyph-name="paragraph" horiz-adv-x="602" d="M203 370h-21q-67 0-107 29t-57 70-17 83q0 51 22 94t72 69 124 27h283v-852h-73v792H287v-792h-72v481q-12-1-33-1z"/><glyph unicode="·" glyph-name="middot" horiz-adv-x="214" d="M132 342l16-17 17-43q0-26-16-43t-42-17q-25 0-41 17t-17 43q0 26 16 43t42 17q25 0 41-17z"/><glyph unicode="¸" glyph-name="cedilla" horiz-adv-x="285" d="M200 0l-18-52q40-6 60-27t21-51q0-40-31-63t-79-24q-47 0-92 21l20 57q32-13 61-13 22 0 34 9t13 22q0 13-13 21t-38 9h-32l31 99 63-8z"/><glyph unicode="¹" glyph-name="uni00B9" horiz-adv-x="232" d="M6 772h154V360H90v355H6v57z"/><glyph unicode="º" glyph-name="ordmasculine" horiz-adv-x="405" d="M277 773l47-44 47-115q0-70-47-114t-122-44q-75 0-122 44T33 614q0 71 47 115t122 44q75 0 122-44zm-119-56l-28-28-29-75q0-46 28-75t73-29q44 0 72 29t28 75q0 46-28 74t-72 29q-44 0-72-28z"/><glyph unicode="»" glyph-name="guillemotright" horiz-adv-x="449" d="M129 88H49l107 170L49 427h80l114-169L129 88zm165 0h-80l107 170-107 169h80l114-169L294 88z"/><glyph unicode="¼" glyph-name="onequarter" horiz-adv-x="733" d="M6 700h154V288H90v355H6v57zm540 0h76L103 0H26l520 700zm-6-288h67L464 154h133v107h66V154h62v-52h-62V0h-66v102H394v50l146 260z"/><glyph unicode="½" glyph-name="onehalf" horiz-adv-x="760" d="M6 700h154V288H90v355H6v57zm539 0h76L102 0H25l520 700zm67-464l14 24 15 42q0 26-19 40t-53 15q-28 0-59-14t-58-38l-29 51q35 28 75 43t81 16q61 0 98-28t37-76q0-59-79-135L518 56h216V0H431v49l157 163q24 24 38 48z"/><glyph unicode="¾" glyph-name="threequarters" horiz-adv-x="818" d="M248 522l33-29 34-78q0-58-42-94t-114-36q-39 0-77 11t-66 32l30 55q22-22 50-33t59-11q43 0 67 20t24 55q0 33-24 51t-68 18H96v39l118 124H35v52h260v-41L171 528l22-1q55-5 88-34zm383 178h76L188 0h-77l520 700zm-6-288h67L549 154h133v107h66V154h62v-52h-62V0h-66v102H479v50l146 260z"/><glyph unicode="¿" glyph-name="questiondown" horiz-adv-x="432" d="M207 422l-15 16-16 41q0 25 15 41t39 17q23 0 39-16t16-42q0-25-16-41t-39-16q-23 0-38 16zM406-65l-54-49-143-50q-88 0-141 42T15 0q0 39 12 68t32 49 49 46q29 25 45 42t27 43 12 57h73q0-40-12-70t-29-49-46-46q-38-34-56-60t-18-67q0-47 30-71t83-25q53 0 84 27t33 80l75-1q-3-88-57-137z"/><glyph unicode="À" glyph-name="Agrave" horiz-adv-x="726" d="M620 0l-74 170H177L104 0H3l311 700h100L724 0H620zM215 257h294L361 597 215 257zm90 645l107-130-79-10-124 98 96 42z"/><glyph unicode="Á" glyph-name="Aacute" horiz-adv-x="726" d="M620 0l-74 170H177L104 0H3l311 700h100L724 0H620zM215 257h294L361 597 215 257zm203 645l96-42-124-98-79 10 107 130z"/><glyph unicode="Â" glyph-name="Acircumflex" horiz-adv-x="726" d="M620 0l-74 170H177L104 0H3l311 700h100L724 0H620zM215 257h294L361 597 215 257zm302 510h-93l-61 67-61-67h-93l105 133h98l105-133z"/><glyph unicode="Ã" glyph-name="Atilde" horiz-adv-x="726" d="M620 0l-74 170H177L104 0H3l311 700h100L724 0H620zM215 257h294L361 597 215 257zm302 574l-19-34-62-35q-21 0-39 8t-44 24q-18 11-28 16t-20 5q-32 0-32-49h-65q0 53 19 87t62 35q21 0 38-7t45-24q18-11 28-16t20-5q32 0 32 48h65q0-53-19-87z"/><glyph unicode="Ä" glyph-name="Adieresis" horiz-adv-x="726" d="M620 0l-74 170H177L104 0H3l311 700h100L724 0H620zM215 257h294L361 597 215 257zm85 614l15-15 15-39q0-23-15-39t-37-16q-22 0-37 16t-16 39q0 24 15 39t38 15q22 0 37-15zm173 0l15-15 15-39q0-23-15-39t-38-16q-22 0-37 16t-16 39q0 24 15 39t38 15q23 0 38-15z"/><glyph unicode="Å" glyph-name="Aring" horiz-adv-x="726" d="M620 0l-74 170H177L104 0H3l311 700h100L724 0H620zM215 257h294L361 597 215 257zm191 705l31-31 32-75q0-43-31-74t-75-32q-43 0-74 31t-32 75q0 43 31 74t75 32q43 0 74-31zm-66-52l-16-16-17-38q0-22 16-37t40-16q23 0 40 15t17 38q0 22-17 38t-40 16q-23 0-39-16z"/><glyph unicode="Æ" glyph-name="AE" horiz-adv-x="1037" d="M580 88h402V0H484v184H209L104 0H3l410 700h556v-88H580V397h349v-87H580V88zM253 260h231v360h-25L253 260z"/><glyph unicode="Ç" glyph-name="Ccedilla" horiz-adv-x="699" d="M451-58l20-21 21-51q0-40-31-63t-79-24q-47 0-92 21l20 57q32-13 61-13 22 0 34 9t13 22q0 13-13 21t-38 9h-32l27 86q-91 9-165 58T81 180 38 351q0 98 48 179t133 129 185 47q73 0 141-27t119-78l-57-69q-40 42-93 65t-109 24q-74 0-136-36t-98-97-36-136q0-73 36-135t98-98 136-36q55 0 108 22t94 62l58-63q-49-47-110-76T427-6l-16-46q40-6 60-27z"/><glyph unicode="È" glyph-name="Egrave" horiz-adv-x="653" d="M100 700h486v-87H196V397h349v-87H196V87h402V0H100v700zm193 202l107-130-79-10-124 98 96 42z"/><glyph unicode="É" glyph-name="Eacute" horiz-adv-x="653" d="M100 700h486v-87H196V397h349v-87H196V87h402V0H100v700zm306 202l96-42-124-98-79 10 107 130z"/><glyph unicode="Ê" glyph-name="Ecircumflex" horiz-adv-x="653" d="M100 700h486v-87H196V397h349v-87H196V87h402V0H100v700zm405 67h-93l-61 67-61-67h-93l105 133h98l105-133z"/><glyph unicode="Ë" glyph-name="Edieresis" horiz-adv-x="653" d="M100 700h486v-87H196V397h349v-87H196V87h402V0H100v700zm188 171l15-15 15-39q0-23-15-39t-37-16q-22 0-37 16t-16 39q0 24 15 39t38 15q22 0 37-15zm173 0l15-15 15-39q0-23-15-39t-38-16q-22 0-37 16t-16 39q0 24 15 39t38 15q23 0 38-15z"/><glyph unicode="Ì" glyph-name="Igrave" horiz-adv-x="296" d="M100 700h96V0h-96v700zM90 902l107-130-79-10-124 98 96 42z"/><glyph unicode="Í" glyph-name="Iacute" horiz-adv-x="296" d="M100 700h96V0h-96v700zm103 202l96-42-124-98-79 10 107 130z"/><glyph unicode="Î" glyph-name="Icircumflex" horiz-adv-x="296" d="M100 700h96V0h-96v700zm202 67h-93l-61 67-61-67H-6L99 900h98l105-133z"/><glyph unicode="Ï" glyph-name="Idieresis" horiz-adv-x="296" d="M100 700h96V0h-96v700zM85 871l15-15 15-39q0-23-15-39t-37-16q-22 0-37 16t-16 39q0 24 15 39t38 15q22 0 37-15zm173 0l15-15 15-39q0-23-15-39t-38-16q-22 0-37 16t-16 39q0 24 15 39t38 15q23 0 38-15z"/><glyph unicode="Ð" glyph-name="Eth" horiz-adv-x="783" d="M486 700l82-45 130-126 47-179q0-99-47-179T568 46 382 0H100v321H28v58h72v321h284q102 0 184-45zM460 88l59 34 94 93 35 134q0 75-35 135t-96 94-134 34H196V379h217v-58H196V88h191q73 0 132 34z"/><glyph unicode="Ñ" glyph-name="Ntilde" horiz-adv-x="794" d="M598 700h95V0h-97L196 542V0h-96v700h97l401-543v543zm-36 131l-19-34-62-35q-21 0-39 8t-44 24q-18 11-28 16t-20 5q-32 0-32-49h-65q0 53 19 87t62 35q21 0 38-7t45-24q18-11 28-16t20-5q32 0 32 48h65q0-53-19-87z"/><glyph unicode="Ò" glyph-name="Ograve" horiz-adv-x="812" d="M507 706l84-47 134-128 49-180q0-98-49-180T592 41 406-7Q305-7 221 40T87 170 38 351q0 98 49 179t133 129 186 47q101 0 185-47zm-173-86l-62-36-100-97-37-136q0-74 37-136t99-98 136-37q73 0 134 36t98 99 37 136q0 74-36 135t-98 98-135 36q-73 0-135-36zm14 282l107-130-79-10-124 98 96 42z"/><glyph unicode="Ó" glyph-name="Oacute" horiz-adv-x="812" d="M507 706l84-47 134-128 49-180q0-98-49-180T592 41 406-7Q305-7 221 40T87 170 38 351q0 98 49 179t133 129 186 47q101 0 185-47zm-173-86l-62-36-100-97-37-136q0-74 37-136t99-98 136-37q73 0 134 36t98 99 37 136q0 74-36 135t-98 98-135 36q-73 0-135-36zm127 282l96-42-124-98-79 10 107 130z"/><glyph unicode="Ô" glyph-name="Ocircumflex" horiz-adv-x="812" d="M507 706l84-47 134-128 49-180q0-98-49-180T592 41 406-7Q305-7 221 40T87 170 38 351q0 98 49 179t133 129 186 47q101 0 185-47zm-173-86l-62-36-100-97-37-136q0-74 37-136t99-98 136-37q73 0 134 36t98 99 37 136q0 74-36 135t-98 98-135 36q-73 0-135-36zm226 147h-93l-61 67-61-67h-93l105 133h98l105-133z"/><glyph unicode="Õ" glyph-name="Otilde" horiz-adv-x="812" d="M507 706l84-47 134-128 49-180q0-98-49-180T592 41 406-7Q305-7 221 40T87 170 38 351q0 98 49 179t133 129 186 47q101 0 185-47zm-173-86l-62-36-100-97-37-136q0-74 37-136t99-98 136-37q73 0 134 36t98 99 37 136q0 74-36 135t-98 98-135 36q-73 0-135-36zm226 211l-19-34-62-35q-21 0-39 8t-44 24q-18 11-28 16t-20 5q-32 0-32-49h-65q0 53 19 87t62 35q21 0 38-7t45-24q18-11 28-16t20-5q32 0 32 48h65q0-53-19-87z"/><glyph unicode="Ö" glyph-name="Odieresis" horiz-adv-x="812" d="M507 706l84-47 134-128 49-180q0-98-49-180T592 41 406-7Q305-7 221 40T87 170 38 351q0 98 49 179t133 129 186 47q101 0 185-47zm-173-86l-62-36-100-97-37-136q0-74 37-136t99-98 136-37q73 0 134 36t98 99 37 136q0 74-36 135t-98 98-135 36q-73 0-135-36zm9 251l15-15 15-39q0-23-15-39t-37-16q-22 0-37 16t-16 39q0 24 15 39t38 15q22 0 37-15zm173 0l15-15 15-39q0-23-15-39t-38-16q-22 0-37 16t-16 39q0 24 15 39t38 15q23 0 38-15z"/><glyph unicode="×" glyph-name="multiply" horiz-adv-x="494" d="M418 449L293 324l125-126-44-47-127 127-126-127-45 47 126 126L76 449l45 47 126-127 127 127 44-47z"/><glyph unicode="Ø" glyph-name="Oslash" horiz-adv-x="812" d="M700 578l37-72 37-156q0-97-49-178T592 43 406-4q-93 0-173 41l-63-92H88l87 128q-64 49-100 121T38 350q0 98 49 178t133 127 186 47q92 0 172-39l63 92h82l-87-128q64-49 101-121zM135 291l24-51 69-90 299 438q-56 28-120 28-74 0-136-35t-99-97-37-134q0-59 24-110zM480 83l61 36 98 97 37 134q0 60-24 112t-68 89L284 112q56-29 123-29 73 0 134 36z"/><glyph unicode="Ù" glyph-name="Ugrave" horiz-adv-x="762" d="M181 189l53-54 148-55q93 0 146 54t53 152v414h96V286q0-137-78-215T382-7Q243-7 164 71T85 286v414h96V286q0-97 53-151zm143 713l107-130-79-10-124 98 96 42z"/><glyph unicode="Ú" glyph-name="Uacute" horiz-adv-x="762" d="M181 189l53-54 148-55q93 0 146 54t53 152v414h96V286q0-137-78-215T382-7Q243-7 164 71T85 286v414h96V286q0-97 53-151zm256 713l96-42-124-98-79 10 107 130z"/><glyph unicode="Û" glyph-name="Ucircumflex" horiz-adv-x="762" d="M181 189l53-54 148-55q93 0 146 54t53 152v414h96V286q0-137-78-215T382-7Q243-7 164 71T85 286v414h96V286q0-97 53-151zm355 578h-93l-61 67-61-67h-93l105 133h98l105-133z"/><glyph unicode="Ü" glyph-name="Udieresis" horiz-adv-x="762" d="M181 189l53-54 148-55q93 0 146 54t53 152v414h96V286q0-137-78-215T382-7Q243-7 164 71T85 286v414h96V286q0-97 53-151zm138 682l15-15 15-39q0-23-15-39t-37-16q-22 0-37 16t-16 39q0 24 15 39t38 15q22 0 37-15zm173 0l15-15 15-39q0-23-15-39t-38-16q-22 0-37 16t-16 39q0 24 15 39t38 15q23 0 38-15z"/><glyph unicode="Ý" glyph-name="Yacute" horiz-adv-x="630" d="M627 700L365 240V0h-96v236L3 700h98l216-357 212 357h98zM370 902l96-42-124-98-79 10 107 130z"/><glyph unicode="Þ" glyph-name="Thorn" horiz-adv-x="674" d="M496 598l76-59 77-172q0-116-76-178t-221-62H196V0h-96v700h96V598h156q144 0 220-59zm54-391v157q0 76-51 115t-151 39H196V207h152q202 0 202 157z"/><glyph unicode="ß" glyph-name="germandbls" horiz-adv-x="651" d="M85 567l30 58 86 89 132 32q66 0 117-23t79-67 29-101q0-61-33-108t-90-67q74-13 118-57t45-115q0-61-32-108t-90-73T340 0h-52v73h59q71 0 115 37t44 95q0 60-49 94t-131 35h-12v73q70 0 112 36t42 99q0 58-37 93t-100 35q-70 0-111-47t-42-128V0H85v489q0 78 30 136z"/><glyph unicode="à" glyph-name="agrave" horiz-adv-x="581" d="M414 0v74Q355-4 229-4q-55 0-96 21T69 75t-23 83q0 71 52 112t147 43h168v25q0 56-34 86t-101 31q-80 0-163-57l-39 64q57 37 105 53t116 17q99 0 153-48t55-136l1-348h-92zM313 73l45 31 55 84v53H258q-63 0-93-19t-31-60q0-41 31-65t83-24q65 0 110 31zm-84 679l107-130-79-10-124 98 96 42z"/><glyph unicode="á" glyph-name="aacute" horiz-adv-x="581" d="M414 0v74Q355-4 229-4q-55 0-96 21T69 75t-23 83q0 71 52 112t147 43h168v25q0 56-34 86t-101 31q-80 0-163-57l-39 64q57 37 105 53t116 17q99 0 153-48t55-136l1-348h-92zM313 73l45 31 55 84v53H258q-63 0-93-19t-31-60q0-41 31-65t83-24q65 0 110 31zm29 679l96-42-124-98-79 10 107 130z"/><glyph unicode="â" glyph-name="acircumflex" horiz-adv-x="581" d="M414 0v74Q355-4 229-4q-55 0-96 21T69 75t-23 83q0 71 52 112t147 43h168v25q0 56-34 86t-101 31q-80 0-163-57l-39 64q57 37 105 53t116 17q99 0 153-48t55-136l1-348h-92zM313 73l45 31 55 84v53H258q-63 0-93-19t-31-60q0-41 31-65t83-24q65 0 110 31zm128 544h-93l-61 67-61-67h-93l105 133h98l105-133z"/><glyph unicode="ã" glyph-name="atilde" horiz-adv-x="581" d="M414 0v74Q355-4 229-4q-55 0-96 21T69 75t-23 83q0 71 52 112t147 43h168v25q0 56-34 86t-101 31q-80 0-163-57l-39 64q57 37 105 53t116 17q99 0 153-48t55-136l1-348h-92zM313 73l45 31 55 84v53H258q-63 0-93-19t-31-60q0-41 31-65t83-24q65 0 110 31zm128 604l-19-34-62-35q-21 0-39 8t-44 24q-18 11-28 16t-20 5q-32 0-32-49h-65q0 53 19 87t62 35q21 0 38-7t45-24q18-11 28-16t20-5q32 0 32 48h65q0-53-19-87z"/><glyph unicode="ä" glyph-name="adieresis" horiz-adv-x="581" d="M414 0v74Q355-4 229-4q-55 0-96 21T69 75t-23 83q0 71 52 112t147 43h168v25q0 56-34 86t-101 31q-80 0-163-57l-39 64q57 37 105 53t116 17q99 0 153-48t55-136l1-348h-92zM313 73l45 31 55 84v53H258q-63 0-93-19t-31-60q0-41 31-65t83-24q65 0 110 31zm-89 661l15-15 15-40q0-23-15-38t-38-16q-23 0-38 15t-15 39q0 24 15 39t38 16q23 0 38-15zm172 0l15-15 15-40q0-23-15-38t-38-16q-23 0-38 15t-15 39q0 24 15 39t38 16q23 0 38-15z"/><glyph unicode="å" glyph-name="aring" horiz-adv-x="581" d="M414 0v74Q355-4 229-4q-55 0-96 21T69 75t-23 83q0 71 52 112t147 43h168v25q0 56-34 86t-101 31q-80 0-163-57l-39 64q57 37 105 53t116 17q99 0 153-48t55-136l1-348h-92zM313 73l45 31 55 84v53H258q-63 0-93-19t-31-60q0-41 31-65t83-24q65 0 110 31zm17 718l31-31 32-75q0-43-31-74t-75-32q-43 0-74 31t-32 75q0 43 31 74t75 32q43 0 74-31zm-66-52l-16-16-17-38q0-22 16-37t40-16q23 0 40 15t17 38q0 22-17 38t-40 16q-23 0-39-16z"/><glyph unicode="æ" glyph-name="ae" horiz-adv-x="978" d="M510 188l25-36 67-57 89-22q46 0 86 16t72 49l51-53q-40-43-95-65T684-3q-78 0-138 35t-90 98q-32-66-89-100T228-4Q146-4 96 39T46 154q0 69 52 107t148 39h169v38q-1 57-36 87t-101 30q-84 0-177-57l-25 67q113 67 221 67 68 0 116-24t70-69q33 45 84 69t115 24q79 0 138-36t91-101 30-150H510v-17q0-40 25-76zm334 183l-45 45-116 46q-70 0-118-45t-55-120h337q-3 74-48 119zM201 248l-33-22-34-64q0-44 31-71t83-28q60 0 101 27t67 82l-1 76H263q-62 0-95-22z"/><glyph unicode="ç" glyph-name="ccedilla" horiz-adv-x="562" d="M488 50l-48-24L330-2l-17-50q40-6 60-27t21-51q0-40-31-63t-79-24q-47 0-92 21l20 57q32-13 61-13 22 0 34 9t13 22q0 13-13 21t-38 9h-32l28 90q-67 8-118 43t-79 93-29 129q0 78 33 139t94 95 137 34q67 0 120-20t90-60l-51-64q-63 61-151 61-52 0-92-23t-64-65-23-97q0-55 22-97t62-65 91-24q51 0 92 17t68 49l53-54q-32-40-80-64z"/><glyph unicode="è" glyph-name="egrave" horiz-adv-x="588" d="M426 532l63-72 63-202q0-20-1-30H133q11-71 59-113t120-42q47 0 87 17t71 48l51-53q-39-42-94-65T305-3q-78 0-138 33t-94 95-34 139q0 78 33 138t94 95 137 35q123 0 186-72zm42-232q-4 72-48 113t-116 42q-70 0-116-42t-56-113h336zM240 752l107-130-79-10-124 98 96 42z"/><glyph unicode="é" glyph-name="eacute" horiz-adv-x="588" d="M426 532l63-72 63-202q0-20-1-30H133q11-71 59-113t120-42q47 0 87 17t71 48l51-53q-39-42-94-65T305-3q-78 0-138 33t-94 95-34 139q0 78 33 138t94 95 137 35q123 0 186-72zm42-232q-4 72-48 113t-116 42q-70 0-116-42t-56-113h336zM353 752l96-42-124-98-79 10 107 130z"/><glyph unicode="ê" glyph-name="ecircumflex" horiz-adv-x="588" d="M426 532l63-72 63-202q0-20-1-30H133q11-71 59-113t120-42q47 0 87 17t71 48l51-53q-39-42-94-65T305-3q-78 0-138 33t-94 95-34 139q0 78 33 138t94 95 137 35q123 0 186-72zm42-232q-4 72-48 113t-116 42q-70 0-116-42t-56-113h336zm-16 317h-93l-61 67-61-67h-93l105 133h98l105-133z"/><glyph unicode="ë" glyph-name="edieresis" horiz-adv-x="588" d="M426 532l63-72 63-202q0-20-1-30H133q11-71 59-113t120-42q47 0 87 17t71 48l51-53q-39-42-94-65T305-3q-78 0-138 33t-94 95-34 139q0 78 33 138t94 95 137 35q123 0 186-72zm42-232q-4 72-48 113t-116 42q-70 0-116-42t-56-113h336zM235 734l15-15 15-40q0-23-15-38t-38-16q-23 0-38 15t-15 39q0 24 15 39t38 16q23 0 38-15zm172 0l15-15 15-40q0-23-15-38t-38-16q-23 0-38 15t-15 39q0 24 15 39t38 16q23 0 38-15z"/><glyph unicode="ì" glyph-name="igrave" horiz-adv-x="274" d="M91 529h93V0H91v529zM79 752l107-130-79-10-124 98 96 42z"/><glyph unicode="í" glyph-name="iacute" horiz-adv-x="274" d="M91 529h93V0H91v529zm101 223l96-42-124-98-79 10 107 130z"/><glyph unicode="î" glyph-name="icircumflex" horiz-adv-x="274" d="M91 529h93V0H91v529zm200 88h-93l-61 67-61-67h-93L88 750h98l105-133z"/><glyph unicode="ï" glyph-name="idieresis" horiz-adv-x="274" d="M91 529h93V0H91v529zm-4 205l14-15 15-40q0-23-15-39t-37-16q-23 0-38 16t-16 39q0 24 15 39t39 16q23 0 37-15zm147 0l14-15 15-40q0-23-15-39t-37-16q-22 0-37 16t-16 39q0 24 15 39t38 16q23 0 37-15z"/><glyph unicode="ð" glyph-name="eth" horiz-adv-x="585" d="M463 533l42-91 42-186q0-78-32-137t-93-91T282-4q-72 0-126 28t-85 79-30 121q0 65 28 114t79 77 120 27q60 0 110-24t75-67q-12 58-48 115t-91 110l-176-82-24 52 152 71q-65 51-136 84l62 45q78-37 149-95l136 63 24-52-114-53q76-76 118-167zM361 79l43 39 44 106q0 67-43 108t-116 41q-72 0-115-39t-43-105q0-68 43-109t114-41q73 0 116 39z"/><glyph unicode="ñ" glyph-name="ntilde" horiz-adv-x="659" d="M478 532l53-54 53-151V0h-93v302q0 67-37 104t-104 38q-71-1-115-45t-51-116V0H91v529h93V417q53 113 201 115 93 0 146-54zm21 145l-19-34-62-35q-21 0-39 8t-44 24q-18 11-28 16t-20 5q-32 0-32-49h-65q0 53 19 87t62 35q21 0 38-7t45-24q18-11 28-16t20-5q32 0 32 48h65q0-53-19-87z"/><glyph unicode="ò" glyph-name="ograve" horiz-adv-x="621" d="M390 532l61-34 96-94 35-139q0-78-34-139t-96-95T311-3q-80 0-141 34t-96 94-35 140q0 78 34 138t96 95 142 34q79 0 140-34zm-131-81l-40-24-63-66-23-97q0-55 22-98t63-66 93-24q51 0 91 23t63 67 23 98q0 54-22 96t-63 67-92 24q-52 0-92-24zm-6 301l107-130-79-10-124 98 96 42z"/><glyph unicode="ó" glyph-name="oacute" horiz-adv-x="621" d="M390 532l61-34 96-94 35-139q0-78-34-139t-96-95T311-3q-80 0-141 34t-96 94-35 140q0 78 34 138t96 95 142 34q79 0 140-34zm-131-81l-40-24-63-66-23-97q0-55 22-98t63-66 93-24q51 0 91 23t63 67 23 98q0 54-22 96t-63 67-92 24q-52 0-92-24zm107 301l96-42-124-98-79 10 107 130z"/><glyph unicode="ô" glyph-name="ocircumflex" horiz-adv-x="621" d="M390 532l61-34 96-94 35-139q0-78-34-139t-96-95T311-3q-80 0-141 34t-96 94-35 140q0 78 34 138t96 95 142 34q79 0 140-34zm-131-81l-40-24-63-66-23-97q0-55 22-98t63-66 93-24q51 0 91 23t63 67 23 98q0 54-22 96t-63 67-92 24q-52 0-92-24zm206 166h-93l-61 67-61-67h-93l105 133h98l105-133z"/><glyph unicode="õ" glyph-name="otilde" horiz-adv-x="621" d="M390 532l61-34 96-94 35-139q0-78-34-139t-96-95T311-3q-80 0-141 34t-96 94-35 140q0 78 34 138t96 95 142 34q79 0 140-34zm-131-81l-40-24-63-66-23-97q0-55 22-98t63-66 93-24q51 0 91 23t63 67 23 98q0 54-22 96t-63 67-92 24q-52 0-92-24zm206 226l-19-34-62-35q-21 0-39 8t-44 24q-18 11-28 16t-20 5q-32 0-32-49h-65q0 53 19 87t62 35q21 0 38-7t45-24q18-11 28-16t20-5q32 0 32 48h65q0-53-19-87z"/><glyph unicode="ö" glyph-name="odieresis" horiz-adv-x="621" d="M390 532l61-34 96-94 35-139q0-78-34-139t-96-95T311-3q-80 0-141 34t-96 94-35 140q0 78 34 138t96 95 142 34q79 0 140-34zm-131-81l-40-24-63-66-23-97q0-55 22-98t63-66 93-24q51 0 91 23t63 67 23 98q0 54-22 96t-63 67-92 24q-52 0-92-24zm-11 283l15-15 15-40q0-23-15-38t-38-16q-23 0-38 15t-15 39q0 24 15 39t38 16q23 0 38-15zm172 0l15-15 15-40q0-23-15-38t-38-16q-23 0-38 15t-15 39q0 24 15 39t38 16q23 0 38-15z"/><glyph unicode="÷" glyph-name="divide" horiz-adv-x="494" d="M271 561l15-15 15-40q0-23-15-39t-38-16q-23 0-38 16t-16 39q0 24 15 39t39 16q23 0 38-15zM36 357h422v-67H36v67zm235-151l15-15 15-40q0-23-15-39t-38-16q-23 0-38 16t-16 39q0 24 15 39t39 16q23 0 38-15z"/><glyph unicode="ø" glyph-name="oslash" horiz-adv-x="621" d="M533 438l24-54 25-119q0-78-34-139t-96-95T311-3q-71 0-130 28L97-98H28L133 55q-45 36-69 90T39 265q0 78 34 138t96 95 142 34q71 0 130-28l84 123h68L488 474q45-36 69-90zM128 178l51-56 217 317q-40 19-85 19-53 0-95-24t-65-69-23-101q0-86 51-142zM364 68l41 25 65 69 24 102q0 43-13 79t-40 62L224 88q40-20 87-20 53 0 94 25z"/><glyph unicode="ù" glyph-name="ugrave" horiz-adv-x="649" d="M559 529V0h-94v112Q413-1 269-3q-92 0-144 54T73 202v327h94V227q0-67 36-104t101-38q74 1 117 52t44 132v260h94zM267 752l107-130-79-10-124 98 96 42z"/><glyph unicode="ú" glyph-name="uacute" horiz-adv-x="649" d="M559 529V0h-94v112Q413-1 269-3q-92 0-144 54T73 202v327h94V227q0-67 36-104t101-38q74 1 117 52t44 132v260h94zM380 752l96-42-124-98-79 10 107 130z"/><glyph unicode="û" glyph-name="ucircumflex" horiz-adv-x="649" d="M559 529V0h-94v112Q413-1 269-3q-92 0-144 54T73 202v327h94V227q0-67 36-104t101-38q74 1 117 52t44 132v260h94zm-80 88h-93l-61 67-61-67h-93l105 133h98l105-133z"/><glyph unicode="ü" glyph-name="udieresis" horiz-adv-x="649" d="M559 529V0h-94v112Q413-1 269-3q-92 0-144 54T73 202v327h94V227q0-67 36-104t101-38q74 1 117 52t44 132v260h94zM262 734l15-15 15-40q0-23-15-38t-38-16q-23 0-38 15t-15 39q0 24 15 39t38 16q23 0 38-15zm172 0l15-15 15-40q0-23-15-38t-38-16q-23 0-38 15t-15 39q0 24 15 39t38 16q23 0 38-15z"/><glyph unicode="ý" glyph-name="yacute" horiz-adv-x="514" d="M251-136l-41-31-98-31q-34 0-62 10t-54 31l40 73q35-25 71-25 60 0 90 68l20 47L-2 529h98l168-424 159 424h95L276-75q-25-61-66-92zm64 888l96-42-124-98-79 10 107 130z"/><glyph unicode="þ" glyph-name="thorn" horiz-adv-x="678" d="M218 478l50 27 117 27q74 0 132-34t90-95 32-140q0-78-31-138t-89-94T387-3q-67 0-118 27t-80 78v-296H96v936h93V427q29 51 79 78zm98-25l-40-24-64-67-23-96q0-55 23-97t63-67 92-24q51 0 91 24t63 67 23 97q0 53-23 96t-63 67-91 24q-51 0-91-24z"/><glyph unicode="ÿ" glyph-name="ydieresis" horiz-adv-x="514" d="M251-136l-41-31-98-31q-34 0-62 10t-54 31l40 73q35-25 71-25 60 0 90 68l20 47L-2 529h98l168-424 159 424h95L276-75q-25-61-66-92zm-54 870l15-15 15-40q0-23-15-38t-38-16q-23 0-38 15t-15 39q0 24 15 39t38 16q23 0 38-15zm172 0l15-15 15-40q0-23-15-38t-38-16q-23 0-38 15t-15 39q0 24 15 39t38 16q23 0 38-15z"/><glyph unicode="–" glyph-name="endash" horiz-adv-x="404" d="M0 336h404v-66H0v66z"/><glyph unicode="—" glyph-name="emdash" horiz-adv-x="706" d="M0 336h706v-66H0v66z"/><glyph unicode="‘" glyph-name="quoteleft" horiz-adv-x="204" d="M132 624l7-12 7-28q0-24-15-39t-39-16q-22 0-37 15t-16 40q0 11 4 23t10 23l54 114h51l-40-113q14-7 21-19z"/><glyph unicode="’" glyph-name="quoteright" horiz-adv-x="204" d="M126 742l15-15 16-40q0-11-4-23t-10-23L89 527H38l40 113q-14 7-21 19t-7 28q0 24 15 39t39 16q22 0 37-15z"/><glyph unicode="‚" glyph-name="quotesinglbase" horiz-adv-x="204" d="M126 103l15-15 16-40q0-11-4-23T143 2L89-112H38L78 1Q64 8 57 20t-7 28q0 24 15 39t39 16q22 0 37-15z"/><glyph unicode="“" glyph-name="quotedblleft" horiz-adv-x="340" d="M132 624l7-12 7-28q0-24-15-39t-39-16q-22 0-37 15t-16 40q0 11 4 23t10 23l54 114h51l-40-113q14-7 21-19zm136 0l7-12 7-28q0-24-15-39t-39-16q-22 0-37 15t-16 40q0 11 4 23t10 23l54 114h51l-40-113q14-7 21-19z"/><glyph unicode="”" glyph-name="quotedblright" horiz-adv-x="340" d="M126 742l15-15 16-40q0-11-4-23t-10-23L89 527H38l40 113q-14 7-21 19t-7 28q0 24 15 39t39 16q22 0 37-15zm136 0l15-15 16-40q0-11-4-23t-10-23l-54-114h-51l40 113q-14 7-21 19t-7 28q0 24 15 39t39 16q22 0 37-15z"/><glyph unicode="„" glyph-name="quotedblbase" horiz-adv-x="340" d="M126 103l15-15 16-40q0-11-4-23T143 2L89-112H38L78 1Q64 8 57 20t-7 28q0 24 15 39t39 16q22 0 37-15zm136 0l15-15 16-40q0-11-4-23T279 2l-54-114h-51L214 1q-14 7-21 19t-7 28q0 24 15 39t39 16q22 0 37-15z"/><glyph unicode="•" glyph-name="bullet" horiz-adv-x="262" d="M166 352l23-23 24-61q0-37-23-62t-59-25q-35 0-58 25t-24 62q0 37 23 60t59 24q35 0 58-23z"/><glyph unicode="‹" glyph-name="guilsinglleft" horiz-adv-x="274" d="M145 427h80L118 257 225 88h-80L31 257l114 170z"/><glyph unicode="›" glyph-name="guilsinglright" horiz-adv-x="274" d="M129 88H49l107 170L49 427h80l114-169L129 88z"/></font>
</defs>
</svg>
