<svg xmlns="http://www.w3.org/2000/svg"><defs><font id="Montserrat" horiz-adv-x="625"><font-face font-family="Montserrat ExtraBold" panose-1="0 0 9 0 0 0 0 0 0 0" ascent="968" descent="-251" alphabetic="0"/><glyph glyph-name="space" horiz-adv-x="211"/><glyph unicode="!" glyph-name="exclam" horiz-adv-x="276" d="M45 699h192V517l-35-267H81L45 517v182zm134-519l26-26 27-67q0-42-26-68T137-8Q96-8 70 18T43 87q0 41 26 67t68 26q42 0 68-26z"/><glyph unicode="&quot;" glyph-name="quotedbl" horiz-adv-x="478" d="M60 701h151V411H60v290zm207 0h151V411H267v290z"/><glyph unicode="#" glyph-name="numbersign" horiz-adv-x="741" d="M716 409H583l-16-125h132l-17-138H550L532 0H387l18 146H285L267 0H123l18 146H9l17 138h132l16 125H43l15 138h133l19 154h144l-19-154h120l19 154h145l-19-154h132l-16-138zM422 284l16 125H318l-16-125h120z"/><glyph unicode="$" glyph-name="dollar" horiz-adv-x="655" d="M272 485l30-15 95-34q74-21 122-42t83-66 36-116q0-93-61-149T415-7v-153H266V-5Q195 6 129 33T12 102l78 158q53-46 129-77t132-32q34 0 53 13t19 37q0 29-31 44t-96 33q-73 19-121 39t-83 64-35 113q0 85 55 142t154 74v147h149V713q63-8 121-28t104-50l-77-160q-56 33-123 56t-110 23q-27 0-42-10t-16-31q0-28 30-43z"/><glyph unicode="%" glyph-name="percent" horiz-adv-x="1005" d="M310 704l54-58 54-155q0-98-54-156t-146-58q-92 0-146 58T17 491q0 97 54 155t147 58q92 0 146-58zM184 597l-19-28-20-78q0-49 19-78t54-29q34 0 53 29t20 78q0 49-19 77t-54 29q-34 0-53-28zm496 104h136L324 0H187l493 701zm200-278l54-58 54-155q0-98-54-156T788-4q-92 0-146 58t-55 156q0 97 54 155t147 58q92 0 146-58zM754 316l-19-28-20-78q0-49 19-78t54-29q34 0 53 29t20 78q0 49-19 77t-54 29q-34 0-53-28z"/><glyph unicode="&amp;" glyph-name="ampersand" horiz-adv-x="697" d="M588-35l-94 90Q405-9 301-9q-71 0-127 26T86 91 54 198q0 63 35 106t98 78q-29 43-42 79t-13 74q0 80 56 127t153 48q61 0 109-21t76-58 27-84q0-66-43-109t-118-83q50-54 90-94 26 48 41 104l127-91q-25-67-60-118 35-32 100-93L588-35zM289 496l29-46q37 22 57 44t20 51q0 24-14 38t-38 14q-25 0-39-17t-15-44q0-40 29-86zm61-365l41 25q-81 81-126 130-47-32-47-73 0-37 25-59t66-23q41 0 82 25z"/><glyph unicode="'" glyph-name="quotesingle" horiz-adv-x="271" d="M60 701h151V411H60v290z"/><glyph unicode="(" glyph-name="parenleft" horiz-adv-x="358" d="M306 649l-32-111-33-229q0-117 32-228t90-205H183Q119-35 86 76T52 309q0 121 33 232t98 201h180q-57-93-89-204z"/><glyph unicode=")" glyph-name="parenright" horiz-adv-x="358" d="M175 742q64-89 97-200t34-233q0-121-33-232t-98-201H-5Q52-31 84 80t33 229q0 117-32 228T-5 742h180z"/><glyph unicode="*" glyph-name="asterisk" horiz-adv-x="394" d="M147 719h100l-2-92 78 47 50-86-82-43 82-45-50-87-79 48 3-91H147l3 92-79-47-50 85 81 45-81 43 50 88 78-49-2 92z"/><glyph unicode="+" glyph-name="plus" horiz-adv-x="515" d="M484 391V265H321V101H195v164H31v126h164v164h126V391h163z"/><glyph unicode="," glyph-name="comma" horiz-adv-x="254" d="M168 180l27-25 27-68q0-35-25-74l-88-139H14L71 14Q53 26 44 45T34 86q0 41 27 67t68 27q39 0 66-25z"/><glyph unicode="-" glyph-name="hyphen" horiz-adv-x="377" d="M52 371h273V245H52v126z"/><glyph unicode="." glyph-name="period" horiz-adv-x="255" d="M169 180l26-26 27-67q0-42-26-68T127-8Q86-8 60 18T33 87q0 41 26 67t68 26q42 0 68-26z"/><glyph unicode="/" glyph-name="slash" horiz-adv-x="364" d="M283 808h169L125-107H-44l327 915z"/><glyph unicode="0" glyph-name="zero" horiz-adv-x="701" d="M504 707l82-92 82-264q0-172-82-265T352-7Q198-7 117 85T35 351q0 172 81 264t236 92q152 0 234-92zM296 556l-24-46-24-159q0-112 24-159t80-47q55 0 78 47t24 159q0 112-23 158t-79 47q-56 0-80-46z"/><glyph unicode="1" glyph-name="one" horiz-adv-x="415" d="M-22 701h336V0H106v535H-22v166z"/><glyph unicode="2" glyph-name="two" horiz-adv-x="613" d="M580 162V0H38l-1 133 250 258q27 27 43 54t17 48q0 24-16 36t-47 13q-41 0-91-23T91 453L13 603q156 107 302 107 72 0 128-23t89-66 33-97q0-55-35-112T428 288L302 162h278z"/><glyph unicode="3" glyph-name="three" horiz-adv-x="609" d="M485 401l48-50 49-129q0-68-35-120T446 20 293-9q-78 0-155 24T9 80l75 142q45-37 94-56t99-20q49 0 75 19t26 56q0 36-26 55t-76 20H151v109l150 144H46v153h502V583L370 423l35-7q80-15 128-65z"/><glyph unicode="4" glyph-name="four" horiz-adv-x="611" d="M577 295V143h-85V0H302v143H-6v137l185 421h196L203 295h99v142h190V295h85z"/><glyph unicode="5" glyph-name="five" horiz-adv-x="628" d="M404 448l62-26 97-75 34-111q0-73-36-128T459 22 305-9q-72 0-149 24T21 81l76 144q44-37 91-58t94-21q44 0 67 19t24 56q0 72-94 72-111 0-195-2v410h481V539H274v-91h47q83 0 145-26z"/><glyph unicode="6" glyph-name="six" horiz-adv-x="628" d="M432 557h-81q-73 0-110-41t-37-119q24 32 62 49t91 18q67 0 117-28t77-81 28-120q0-74-32-129t-92-85T317-9q-94 0-162 42T51 155 14 341q0 111 40 194t113 129 172 46q61 0 123-16t106-44l-76-139q-60 46-141 46zM269 319l-22-23-23-62q0-38 21-61t64-23q41 0 63 22t22 64q0 39-21 61t-62 22q-42 0-64-23z"/><glyph unicode="7" glyph-name="seven" horiz-adv-x="596" d="M14 701h570V561L331 0H112l242 539H198v-98H14v260z"/><glyph unicode="8" glyph-name="eight" horiz-adv-x="630" d="M372 710l57-24 89-67 31-102q0-42-21-80t-56-62q52-26 82-73t31-104q0-62-35-109T449 17 297-9q-86 0-151 25T45 87 9 194q0 57 33 106t90 75q-39 26-62 66t-24 82q0 56 31 98t87 66 132 23q76 0 133-24zM259 574l-20-17-21-51q0-31 20-48t59-17q38 0 58 17t21 48q0 33-20 50t-59 18q-38 0-58-17zm-7-281l-24-20-24-58q0-36 24-55t69-20q46 0 70 19t24 56q0 38-24 58t-70 20q-45 0-69-20z"/><glyph unicode="9" glyph-name="nine" horiz-adv-x="627" d="M159 145h82q74 0 111 41t37 118q-54-67-153-67-66 0-116 28t-77 81-28 121q0 74 32 129t92 84 138 30q93 0 161-42t104-121 37-186q0-111-40-195T425 37 253-9Q193-9 132 7T26 51l76 139q57-45 139-45zm84 406l-21-22-22-63q0-40 21-61t61-22q42 0 64 23t23 62q0 38-21 60t-65 23q-40 0-61-22z"/><glyph unicode=":" glyph-name="colon" horiz-adv-x="255" d="M169 477l26-26 27-67q0-42-26-68t-69-27q-41 0-67 26t-27 69q0 41 26 67t68 26q42 0 68-26zm0-297l26-26 27-67q0-42-26-68T127-8Q86-8 60 18T33 87q0 41 26 67t68 26q42 0 68-26z"/><glyph unicode=";" glyph-name="semicolon" horiz-adv-x="255" d="M169 477l26-26 27-67q0-42-26-68t-69-27q-41 0-67 26t-27 69q0 41 26 67t68 26q42 0 68-26zm-1-297l27-25 27-68q0-35-25-74l-88-139H14L71 14Q53 26 44 45T34 86q0 41 27 67t68 27q39 0 66-25z"/><glyph unicode="&lt;" glyph-name="less" horiz-adv-x="515" d="M484 589V448L161 324l323-125V58L31 243v161l453 185z"/><glyph unicode="=" glyph-name="equal" horiz-adv-x="515" d="M31 500h453V374H31v126zm0-218h453V156H31v126z"/><glyph unicode="&gt;" glyph-name="greater" horiz-adv-x="515" d="M31 67v141l323 124L31 457v141l453-185V252L31 67z"/><glyph unicode="?" glyph-name="question" horiz-adv-x="486" d="M22 579l63 64 175 64q106 0 165-46t59-132q0-53-24-87t-70-76q-39-35-58-60t-19-61H163q0 58 21 92t59 71q27 26 39 44t13 44q0 27-13 39t-41 13q-32 0-48-20t-17-64H21q1 115 64 179zm254-399l26-26 27-67q0-42-26-68T234-8q-41 0-67 26t-27 69q0 41 26 67t68 26q42 0 68-26z"/><glyph unicode="@" glyph-name="at" horiz-adv-x="888" d="M656 116h34q19 0 36 20t29 56 11 80q0 94-37 169T620 560t-170 44q-89 0-164-45T166 436t-44-168q0-90 41-163T277-9t161-42q46 0 96 15t90 47l49-83q-43-34-109-54t-126-21q-117 0-213 54T74 56 19 268q0 119 57 218t157 156 217 57q118 0 213-55t151-152 55-217q0-73-24-128t-69-85-99-31q-96 0-118 75l-2 10q-26-39-62-57t-78-18q-55 0-103 29t-79 81-30 120q0 63 24 116t70 85 104 32q34 0 61-12t44-26 19-20v46h129V162q0-46 34-46zM392 385l-22-31-23-78q0-49 23-84t61-35q40 0 63 34t24 84q0 47-24 78t-65 32q-37 0-59-31z"/><glyph unicode="A" glyph-name="A" horiz-adv-x="786" d="M572 0l-41 112H248L206 0H-8l299 701h214L794 0H572zM306 264h170l-84 229-86-229z"/><glyph unicode="B" glyph-name="B" horiz-adv-x="720" d="M484 701l61-21 94-62 33-94q0-53-32-94t-87-57q64-13 102-61t39-116q0-59-34-103t-96-69T418 0H59v701h344q81 0 142-21zm-61-275l18 16 18 45q0 27-18 42t-49 16H266V426h126q31 0 49 16zm9-271l23 18 24 49q0 29-23 45t-64 16H266V156h126q40-1 63 17z"/><glyph unicode="C" glyph-name="C" horiz-adv-x="690" d="M533 490l-45 25-89 26q-47 0-85-24t-60-66-22-96q0-53 22-95t60-67 85-25q40 0 85 22t82 60l120-128q-57-62-137-99T389-14q-105 0-189 47T67 165 19 353q0 102 49 184t135 130 193 47q79 0 158-34t132-91L566 446q-33 44-78 69z"/><glyph unicode="D" glyph-name="D" horiz-adv-x="762" d="M478 701l85-43 133-123 47-184q0-104-48-184T560 44 359 0H59v701h307q112 0 197-43zm-35-538l44 51 44 135q0 84-47 136t-122 52h-95V163h105q71 0 115 51z"/><glyph unicode="E" glyph-name="E" horiz-adv-x="683" d="M59 701h573V541H267V431h331V271H267V160h375V0H59v701z"/><glyph unicode="F" glyph-name="F" horiz-adv-x="619" d="M59 701h544V541H267V401h312V241H267V0H59v701z"/><glyph unicode="G" glyph-name="G" horiz-adv-x="740" d="M517 363h179V78q-57-40-141-66T396-14q-107 0-193 47T68 164 19 351q0 103 50 186t140 130 201 47q80 0 160-29t136-79L588 464q-36 35-84 56t-95 21q-50 0-90-25t-64-68-23-97q0-54 23-98t65-69 91-25q45 0 106 29v175z"/><glyph unicode="H" glyph-name="H" horiz-adv-x="783" d="M59 701h208V422h249v279h208V0H516v261H267V0H59v701z"/><glyph unicode="I" glyph-name="I" horiz-adv-x="326" d="M59 701h208V0H59v701z"/><glyph unicode="J" glyph-name="J" horiz-adv-x="554" d="M507 118l-68-63L252-9Q99-9-7 108l95 137q38-39 77-59t70-20q29 0 45 18t17 53v298H59v166h448V232q0-114-68-177z"/><glyph unicode="K" glyph-name="K" horiz-adv-x="761" d="M758 0H509L345 258l-78-86V0H59v701h208V420l235 281h240L487 417 758 0z"/><glyph unicode="L" glyph-name="L" horiz-adv-x="574" d="M59 701h208V174h294V0H59v701z"/><glyph unicode="M" glyph-name="M" horiz-adv-x="939" d="M59 701h223l188-389 187 389h223V0H697v416L537 69H402L242 416V0H59v701z"/><glyph unicode="N" glyph-name="N" horiz-adv-x="783" d="M534 701h190V0H547L250 390V0H59v701h178l297-391v391z"/><glyph unicode="O" glyph-name="O" horiz-adv-x="802" d="M509 714l87-47 137-129 50-186q0-104-49-187T597 34 401-14q-109 0-196 47T69 164 19 352q0 103 49 185t137 130 196 47q108 0 195-47zM358 541l-39-25-63-68-24-97q0-53 23-97t63-69 86-26q45 0 83 25t61 69 22 98q0 53-22 96t-60 69-84 25q-46 0-85-25z"/><glyph unicode="P" glyph-name="P" horiz-adv-x="683" d="M513 701l74-65 75-184q0-125-74-194t-211-69l-110-1V0H59v701h318q136 0 210-65zm-99-352l25 25 26 72q0 46-25 70t-73 25H267V349h100q47 0 72 25z"/><glyph unicode="Q" glyph-name="Q" horiz-adv-x="805" d="M815-94q-41-35-98-56t-111-22q-74 0-133 42T381-14Q277-9 195 39T66 169 19 352q0 103 49 185t137 130 196 47q108 0 195-47t137-129 50-186q0-114-60-203T562 17q29-36 67-36 22 0 53 13t63 37l70-125zM232 298l23-44 63-69 86-26q45 0 83 25t61 69 22 98q0 53-22 96t-60 69-84 25q-46 0-85-25t-63-68-24-97q0-53 23-97z"/><glyph unicode="R" glyph-name="R" horiz-adv-x="725" d="M470 0l-93 189H267V0H59v701h327q141 0 218-65t78-184q0-77-30-133t-88-90L706 0H470zM267 349h119q47 0 72 25t26 72q0 46-25 70t-73 25H267V349z"/><glyph unicode="S" glyph-name="S" horiz-adv-x="655" d="M507 508l-67 23-110 23q-27 0-42-10t-16-31q0-28 30-43t95-34q74-21 122-42t83-66 36-116q0-73-38-123T496 13 349-12q-90 0-180 30T12 102l78 158q53-46 129-77t132-32q34 0 53 13t19 37q0 29-31 44t-96 33q-73 19-121 39t-83 64-35 113q0 68 36 118t101 78 153 27q79 0 157-22t136-60l-77-160q-56 33-123 56z"/><glyph unicode="T" glyph-name="T" horiz-adv-x="628" d="M6 701h616V535H418V0H209v535H6v166z"/><glyph unicode="U" glyph-name="U" horiz-adv-x="745" d="M256 231l34-36 85-36q50 0 82 35t32 96v411h208V290q0-92-39-160T545 24 375-14q-98 0-172 37T89 129 48 290v411h208V290q0-59 34-95z"/><glyph unicode="V" glyph-name="V" horiz-adv-x="748" d="M-3 701h222l160-485 160 485h213L481 0H265L-3 701z"/><glyph unicode="W" glyph-name="W" horiz-adv-x="1133" d="M923 701h213L899 0H685L567 449 445 0H232L-3 701h222l126-487 125 487h203l126-486 124 486z"/><glyph unicode="X" glyph-name="X" horiz-adv-x="756" d="M15 701h242l116-183 117 183h245L506 366 756 0H506L373 200 242 0H-1l248 357L15 701z"/><glyph unicode="Y" glyph-name="Y" horiz-adv-x="702" d="M709 701L457 222V0H249v218L-8 701h208l153-286 149 286h207z"/><glyph unicode="Z" glyph-name="Z" horiz-adv-x="679" d="M36 701h613V569L301 162h355V0H24v131l348 408H36v162z"/><glyph unicode="[" glyph-name="bracketleft" horiz-adv-x="370" d="M60 742h298V593H240V25h118v-149H60v866z"/><glyph unicode="\" glyph-name="backslash" horiz-adv-x="364" d="M81 808l327-915H239L-88 808H81z"/><glyph unicode="]" glyph-name="bracketright" horiz-adv-x="370" d="M310 742v-866H12V25h118v568H12v149h298z"/><glyph unicode="^" glyph-name="asciicircum" horiz-adv-x="593" d="M562 141H421L297 414 172 141H31l185 383h161l185-383z"/><glyph unicode="_" glyph-name="underscore" horiz-adv-x="592" d="M0-95h592v-109H0v109z"/><glyph unicode="`" glyph-name="grave" horiz-adv-x="374" d="M196 775l109-170-133-10L37 717l159 58z"/><glyph unicode="a" glyph-name="a" horiz-adv-x="607" d="M432 552l64-52 65-147V0H363v60q-25-33-65-51T204-9Q118-9 69 37T20 162q0 79 53 121t157 44h133v2q0 34-24 53t-70 19q-33 0-76-10t-88-29L55 496q138 56 262 56 115 0 179-52zM302 123l25 15 36 41v49h-92q-61 0-61-51 0-26 16-40t45-14q31 0 56 15z"/><glyph unicode="b" glyph-name="b" horiz-adv-x="688" d="M492 551l57-35 88-99 32-148q0-83-30-145t-87-97T422-7q-48 0-87 18t-67 52V0H66v742h202V481q27 34 65 52t84 18q75 0 132-35zm-81-398l27 33 27 88q0 54-27 87t-72 34q-44 0-71-33t-27-88q0-54 27-87t71-34q45 0 72 33z"/><glyph unicode="c" glyph-name="c" horiz-adv-x="562" d="M386 359l-22 14-51 14q-40 0-65-32t-25-84q0-53 24-85t66-33q61 0 86 60l157-79q-31-67-97-104T302-7q-85 0-149 34t-99 97-35 146q0 84 35 147t100 99 150 35q85 0 150-37t101-105l-155-76q-14 26-36 40z"/><glyph unicode="d" glyph-name="d" horiz-adv-x="688" d="M622 742V0H420v62q-27-33-65-51T271-7q-75 0-132 35t-88 98-32 149q0 83 30 145t87 97 130 34q48 0 87-18t67-52v261h202zM366 148l27 33 27 89q0 54-27 87t-71 34q-45 0-72-33t-27-88q0-55 27-88t72-34q44 0 71 33z"/><glyph unicode="e" glyph-name="e" horiz-adv-x="609" d="M440 551l75-79 75-218q0-21-1-31H223q12-39 39-60t67-21q63 0 120 52L554 91q-43-48-104-73T312-7q-90 0-156 34T55 124 19 270q0 84 36 147t101 99 150 35q134 0 209-79zm-49-189l-23 26-60 26q-35 0-58-25t-31-67h171q1 40-22 66z"/><glyph unicode="f" glyph-name="f" horiz-adv-x="411" d="M329 594l-15-14-16-38v-26h113V387H298V0H98v387H24v129h74v50q0 85 59 135t155 50q61 0 123-20l-22-150q-39 13-58 13-26 0-41-14z"/><glyph unicode="g" glyph-name="g" horiz-adv-x="651" d="M593 544V47q0-75-37-132t-105-87-157-31q-72 0-138 20T43-132L110 4q36-24 80-37t87-13q54 0 85 23t31 64v55q-54-65-146-65-66 0-117 32t-81 93-30 138q0 76 28 134t80 91 116 32q95 0 150-66v59h200zM342 176l25 31 26 81q0 52-25 83t-68 31q-41 0-66-31t-26-83q0-50 25-81t67-31q42 0 67 31z"/><glyph unicode="h" glyph-name="h" horiz-adv-x="683" d="M529 552l54-56 54-151V0H435v287q0 41-21 64t-57 24q-41-1-65-30t-24-76V0H66v742h202V460q29 45 72 68t101 24q88 0 142-56z"/><glyph unicode="i" glyph-name="i" horiz-adv-x="324" d="M61 544h202V0H61v544zm146 259l29-29 29-75q0-46-29-75t-75-29q-46 0-75 29t-30 75q0 46 29 75t76 29q46 0 75-29z"/><glyph unicode="j" glyph-name="j" horiz-adv-x="326" d="M3-45h14q48 0 48 57v532h202V-19q0-85-55-134T64-202q-70 0-128 22l39 141q28-6 42-6zm206 848l29-29 29-75q0-46-29-75t-75-29q-46 0-75 29t-30 75q0 46 29 75t76 29q46 0 75-29z"/><glyph unicode="k" glyph-name="k" horiz-adv-x="648" d="M408 0l-99 189-41-43V0H66v742h202V381l150 163h228L447 334 647 0H408z"/><glyph unicode="l" glyph-name="l" horiz-adv-x="335" d="M66 742h202V0H66v742z"/><glyph unicode="m" glyph-name="m" horiz-adv-x="1034" d="M852 552l44-25 68-73 24-109V0H786v287q0 40-20 64t-55 24q-39-1-62-30t-23-76V0H424v287q0 40-20 64t-55 24q-39-1-62-30t-24-76V0H61v544h202v-83q28 44 71 67t98 24q63 0 110-31t69-87q26 57 73 87t111 31q57 0 101-25z"/><glyph unicode="n" glyph-name="n" horiz-adv-x="678" d="M494 552l44-25 69-73 25-109V0H430v287q0 40-21 64t-57 24q-41-1-65-30t-24-76V0H61v544h202v-84q29 45 72 68t101 24q58 0 102-25z"/><glyph unicode="o" glyph-name="o" horiz-adv-x="643" d="M413 551l68-34 105-98 38-147q0-83-37-146T481 28 322-7q-91 0-159 34T57 125 19 272q0 84 37 147t106 97 160 35q91 0 159-34zM277 391l-27-33-27-88q0-55 27-88t72-33q44 0 71 33t27 88q0 54-27 87t-71 34q-45 0-72-33z"/><glyph unicode="p" glyph-name="p" horiz-adv-x="688" d="M492 551l57-35 88-99 32-148q0-83-30-145t-87-97T422-7q-48 0-87 18t-67 52v-257H66v738h202v-63q27 34 65 52t84 18q75 0 132-35zm-81-398l27 33 27 88q0 54-27 87t-72 34q-44 0-71-33t-27-88q0-54 27-87t71-34q45 0 72 33z"/><glyph unicode="q" glyph-name="q" horiz-adv-x="688" d="M622 544v-738H420V62q-27-33-65-51T271-7q-75 0-132 35t-88 98-32 149q0 83 30 145t87 97 130 34q48 0 87-18t67-52v63h202zM366 148l27 33 27 89q0 54-27 87t-71 34q-45 0-72-33t-27-88q0-55 27-88t72-34q44 0 71 33z"/><glyph unicode="r" glyph-name="r" horiz-adv-x="444" d="M292 503l43 24 99 25V370q-12 2-35 2-63 0-99-30t-37-82V0H61v544h202v-86q29 45 72 69z"/><glyph unicode="s" glyph-name="s" horiz-adv-x="535" d="M333 417h-67q-19 0-30-6t-11-20q0-15 20-24t66-22q60-17 99-34t69-51 30-89q0-83-65-131T270-9q-72 0-137 19T14 68l62 127q51-33 101-50t96-17q21 0 33 6t12 19q0 15-19 24t-65 22q-58 16-97 33t-68 51-29 88q0 84 64 133t168 49q125 0 239-66l-67-127q-111 57-178 57z"/><glyph unicode="t" glyph-name="t" horiz-adv-x="449" d="M433 26q-29-16-70-25T279-9q-87 0-139 48T88 170v217H13v129h75v151h201V516h134V387H289V201q0-26 12-39t34-13q19 0 62 16l36-139z"/><glyph unicode="u" glyph-name="u" horiz-adv-x="668" d="M607 544V0H405v81q-28-44-70-67T238-9q-57 0-100 25T70 89 46 199v345h202V256q0-40 20-63t53-24q39 1 61 30t23 76v269h202z"/><glyph unicode="v" glyph-name="v" horiz-adv-x="594" d="M-8 544h208l100-360 101 360h202L400 0H194L-8 544z"/><glyph unicode="w" glyph-name="w" horiz-adv-x="959" d="M-8 544h205l98-347 94 347h190l97-347 96 347h196L770 0H571l-90 312L389 0H190L-8 544z"/><glyph unicode="x" glyph-name="x" horiz-adv-x="633" d="M10 544h232l75-141 84 141h220L451 279 633 0H401l-84 154L221 0H-1l182 278L10 544z"/><glyph unicode="y" glyph-name="y" horiz-adv-x="605" d="M353-126l-56-38-138-39q-50 0-92 14t-83 46L68-8q19-17 36-24t37-7q42 0 59 35l10 19-225 529h207l119-333 101 333h201L385-46q-32-80-88-118z"/><glyph unicode="z" glyph-name="z" horiz-adv-x="562" d="M39 544h488V424L283 151h254V0H29v119l244 273H39v152z"/><glyph unicode="{" glyph-name="braceleft" horiz-adv-x="370" d="M272 378l-23-28-79-41q56-14 79-42t23-86V84q0-35 17-48t67-13v-149h-79q-70 0-110 14t-57 45-18 88v173q0 21-7 29t-26 9H17v153h42q18 0 25 8t8 31v172q0 56 17 88t58 46 110 14h79V595q-50 0-67-13t-17-48v-97q0-59-23-87z"/><glyph unicode="|" glyph-name="bar" horiz-adv-x="314" d="M82 799h150v-905H82v905z"/><glyph unicode="}" glyph-name="braceright" horiz-adv-x="370" d="M353 385V232h-42q-18 0-25-8t-8-30V21q0-56-17-87t-58-46-110-14H14V23q50 0 67 13t17 48v97q0 58 23 86t79 42q-56 13-79 41t-23 87v97q0 35-17 48t-67 13v149h79q70 0 110-14t57-46 18-88V424q0-22 7-30t26-9h42z"/><glyph unicode="~" glyph-name="asciitilde" horiz-adv-x="515" d="M465 323l-29-46-92-46q-28 0-48 8t-44 23q-11 7-21 11t-17 5q-28 0-28-43H51q0 95 30 141t92 46q26 0 46-8t45-23q25-16 38-16 29 0 29 43h134q0-95-29-141z"/><glyph glyph-name="uni00A0" horiz-adv-x="211"/><glyph unicode="¡" glyph-name="exclamdown" horiz-adv-x="276" d="M104 363l-26 26-27 67q0 42 26 68t69 27q41 0 67-26t27-69q0-41-26-67t-68-26q-42 0-68 26zm134-519H46V26l35 267h121l36-267v-182z"/><glyph unicode="¢" glyph-name="cent" horiz-adv-x="600" d="M532 83l-44-33L385 2v-162H236V-1Q136 18 78 90T19 270q0 109 58 182t159 93v162h149V541q57-13 100-47t70-85l-155-76q-14 26-36 40t-51 14q-40 0-65-32t-25-84q0-53 24-85t66-33q61 0 86 60l157-79q-24-51-68-84z"/><glyph unicode="£" glyph-name="sterling" horiz-adv-x="570" d="M305 156h247V0H24v156h72v151H24v68h72v93q0 115 66 178t185 64q63 0 120-22t100-62l-77-153q-63 63-120 63-65 0-65-72v-89h163v-68H305V156z"/><glyph unicode="¤" glyph-name="currency" horiz-adv-x="697" d="M605 258l-30-55 103-102L565-12 461 92q-52-26-113-26T235 92L132-12 19 101l102 101q-30 57-30 120 0 60 27 114l-99 98 113 113 97-98q55 29 119 29 66 0 119-29l98 98 113-113-99-99q26-52 26-113 0-64-30-119zm-216-34l30 29 30 69q0 41-30 70t-71 30q-41 0-70-29t-30-71q0-40 29-69t71-29q41 0 71 29z"/><glyph unicode="¥" glyph-name="yen" horiz-adv-x="717" d="M717 701L524 335h126v-68H489l-24-45v-3h185v-68H465V0H257v151H69v68h187l-26 48H69v68h125L0 701h208l153-286 148 286h208z"/><glyph unicode="¦" glyph-name="brokenbar" horiz-adv-x="314" d="M82 799h150V459H82v340zm0-564h150v-341H82v341z"/><glyph unicode="§" glyph-name="section" horiz-adv-x="568" d="M359 561h-63q-23 0-35-7t-12-19q0-17 22-28t73-26q61-19 101-37t71-51 30-85q0-44-25-79t-69-57q29-20 41-40t13-54q0-49-28-87t-82-59-126-21q-68 0-135 20T14-11l55 125q53-33 104-50t93-18q25 0 38 7t14 19q0 15-21 25t-70 26q-60 18-100 36t-71 52-30 85q0 46 25 80t73 56q-33 20-45 41t-13 53q0 49 27 87t80 59 121 22q119 0 240-65l-60-125q-115 57-178 57zM238 339l-15-8-15-22q0-18 25-29t64-12q31 0 46 8t16 21q0 18-27 30t-65 12q-29 0-44-8z"/><glyph unicode="¨" glyph-name="dieresis" horiz-adv-x="448" d="M165 774l23-23 23-60q0-36-23-59t-59-24q-36 0-59 23t-23 60q0 36 23 59t59 24q36 0 59-23zm197 0l23-23 23-60q0-36-23-59t-59-24q-36 0-59 23t-23 60q0 36 23 59t59 24q36 0 59-23z"/><glyph unicode="©" glyph-name="copyright" horiz-adv-x="715" d="M451 689l77-45 123-124 45-170q0-91-45-169T528 56 356 9q-93 0-170 46T64 179 19 348q0 91 45 169t122 125 172 47q93 0 170-45zm-162-91l-56-34-90-91-33-125q0-67 32-124t89-90 125-34q69 0 126 34t90 91 33 125q0 67-33 124t-89 90-125 34q-69 0-125-34zm138-188l-20 11-41 12q-33 0-55-23t-22-59q0-36 22-59t55-24q19 0 39 9t37 27l55-58q-26-29-62-45t-74-17q-48 0-86 21t-61 59-22 85q0 46 22 83t62 59 89 21q36 0 72-15t60-42l-55-65q-15 20-35 31z"/><glyph unicode="ª" glyph-name="ordfeminine" horiz-adv-x="397" d="M282 790l42-31 41-89V458H231v37q-33-43-100-43-54 0-84 28t-31 75q0 48 34 73t99 26h82q-1 18-15 28t-42 10q-42 0-105-21l-31 88q95 31 169 31 75 0 117-31zm-71-254l20 27v30h-53q-16 0-24-7t-9-20q0-30 33-30t53 27z"/><glyph unicode="«" glyph-name="guillemotleft" horiz-adv-x="526" d="M114 459h162L170 270 276 80H114L-9 270l123 189zm242 0h162L412 270 518 80H356L233 270l123 189z"/><glyph unicode="¬" glyph-name="logicalnot" horiz-adv-x="588" d="M529 439V132H385v180H31v127h498z"/><glyph unicode="­" glyph-name="uni00AD" horiz-adv-x="377" d="M52 371h273V245H52v126z"/><glyph unicode="®" glyph-name="registered" horiz-adv-x="715" d="M451 689l77-45 123-124 45-170q0-91-45-169T528 56 356 9q-93 0-170 46T64 179 19 348q0 91 45 169t122 125 172 47q93 0 170-45zm-26-589l57 34 90 91 33 125q0 67-33 124t-89 90-125 34q-69 0-125-34t-90-91-33-125q0-67 32-124t89-90 125-34q69 0 126 34zm74 237l-53-30 64-101H407l-42 84h-46v-84h-91v310h140q62 0 96-28t35-81q0-70-53-100zm-180 22h49q21 0 32 11t12 33q0 21-11 32t-33 12h-49v-88z"/><glyph unicode="¯" glyph-name="overscore" horiz-adv-x="342" d="M18 752h315V637H18v115z"/><glyph unicode="°" glyph-name="degree" horiz-adv-x="389" d="M255 821l35-35 35-85q0-49-35-84t-85-35q-50 0-85 35t-35 84q0 50 35 85t85 35q50 0 85-35zm-68-76l-13-13-13-31q0-18 13-30t31-13q18 0 31 12t13 31q0 18-13 31t-31 13q-18 0-31-13z"/><glyph unicode="±" glyph-name="plusminus" horiz-adv-x="515" d="M321 467h163V346H321V190H195v156H31v121h164v156h126V467zM31-8v126h453V-8H31z"/><glyph unicode="²" glyph-name="uni00B2" horiz-adv-x="388" d="M189 611l9 15 10 26q0 23-32 23-24 0-55-14t-63-39L5 719q100 66 194 66 68 0 112-31t45-82q0-34-22-68t-63-74l-69-66h161V360H22v85l153 152q14 14 23 29z"/><glyph unicode="³" glyph-name="uni00B3" horiz-adv-x="376" d="M304 601l26-30 27-77q0-61-48-100t-127-39q-49 0-96 15T7 411l56 103q49-58 108-58 48 0 48 38t-48 38H93v71l85 78H29v98h308v-76l-97-88 20-5q44-9 70-39z"/><glyph unicode="´" glyph-name="acute" horiz-adv-x="350" d="M159 775l158-58-153-122-132 10 127 170z"/><glyph unicode="µ" glyph-name="uni00B5" horiz-adv-x="688" d="M627 544V0H425v81q-26-42-66-65T268-9v-185H66v738h202V256q0-40 20-63t53-24q39 1 61 30t23 76v269h202z"/><glyph unicode="¶" glyph-name="paragraph" horiz-adv-x="668" d="M202 307q-77 0-124 33t-66 82-20 98q0 60 26 110t82 81 144 31h365v-848H460v736h-85v-736H226v413h-24z"/><glyph unicode="·" glyph-name="middot" horiz-adv-x="239" d="M163 397l29-29 29-75q0-46-29-75t-75-29q-46 0-75 29t-30 75q0 46 29 75t76 29q46 0 75-29z"/><glyph unicode="¸" glyph-name="cedilla" horiz-adv-x="332" d="M244 0l-21-57q83-21 83-82 0-50-38-75t-95-25q-57 0-114 20l28 85q20-8 48-8 18 0 29 5t12 15q0 11-16 17t-40 6h-20l35 109L244 0z"/><glyph unicode="¹" glyph-name="uni00B9" horiz-adv-x="270" d="M0 779h219V360H78v312H0v107z"/><glyph unicode="º" glyph-name="ordmasculine" horiz-adv-x="416" d="M296 789l52-45 53-123q0-76-52-121t-141-46q-88 0-140 45T16 621q0 77 52 122t140 46q88 0 140-45zM183 685l-14-18-15-47q0-29 14-47t40-18q24 0 39 18t15 47q0 29-15 47t-39 18q-25 0-39-18z"/><glyph unicode="»" glyph-name="guillemotright" horiz-adv-x="528" d="M169 80H7l106 189L7 459h162l123-190L169 80zm242 0H249l106 189-106 190h162l123-190L411 80z"/><glyph unicode="¼" glyph-name="onequarter" horiz-adv-x="876" d="M0 700h219V281H78v312H0v107zm584 1h136L228 0H91l493 701zm28-282h135L626 179h64v81h131v-81h56V82h-56V0H690v82H482v89l130 248z"/><glyph unicode="½" glyph-name="onehalf" horiz-adv-x="920" d="M0 700h219V281H78v312H0v107zm584 1h136L228 0H91l493 701zm137-450l9 15 10 26q0 23-32 23-24 0-55-14t-63-39l-53 97q100 66 194 66 68 0 112-31t45-82q0-34-22-68t-63-74l-69-66h161V0H554v85l153 152q14 14 23 29z"/><glyph unicode="¾" glyph-name="threequarters" horiz-adv-x="952" d="M304 522l26-30 27-77q0-61-48-100t-127-39q-49 0-96 15T7 332l56 103q49-58 108-58 48 0 48 38t-48 38H93v71l85 78H29v98h308v-76l-97-88 20-5q44-9 70-39zm356 179h136L304 0H167l493 701zm29-282h135L703 179h64v81h131v-81h56V82h-56V0H767v82H559v89l130 248z"/><glyph unicode="¿" glyph-name="questiondown" horiz-adv-x="486" d="M210 363l-26 26-27 67q0 42 26 68t69 27q41 0 67-26t27-69q0-41-26-67t-68-26q-42 0-68 26zM464-36l-63-64-175-64q-106 0-165 46T2 14q0 53 24 87t70 76q39 35 58 60t19 61h150q0-58-21-92t-59-71q-27-26-39-44t-13-44q0-27 13-39t41-13q32 0 48 20t17 64h155q-1-115-64-179z"/><glyph unicode="À" glyph-name="Agrave" horiz-adv-x="786" d="M572 0l-41 112H248L206 0H-8l299 701h214L794 0H572zM306 264h170l-84 229-86-229zm72 664l109-170-133-10-135 122 159 58z"/><glyph unicode="Á" glyph-name="Aacute" horiz-adv-x="786" d="M572 0l-41 112H248L206 0H-8l299 701h214L794 0H572zM306 264h170l-84 229-86-229zm114 664l158-58-153-122-132 10 127 170z"/><glyph unicode="Â" glyph-name="Acircumflex" horiz-adv-x="786" d="M572 0l-41 112H248L206 0H-8l299 701h214L794 0H572zM306 264h170l-84 229-86-229zm285 491H457l-62 69-63-69H198l110 157h173l110-157z"/><glyph unicode="Ã" glyph-name="Atilde" horiz-adv-x="786" d="M572 0l-41 112H248L206 0H-8l299 701h214L794 0H572zM306 264h170l-84 229-86-229zm281 570l-24-41-79-41q-24 0-44 7t-46 20q-30 16-43 16-26 0-28-40H214q0 84 24 125t79 42q24 0 44-7t48-20q11-6 22-10t18-5q15 0 22 9t8 30h108q0-85-24-126z"/><glyph unicode="Ä" glyph-name="Adieresis" horiz-adv-x="786" d="M572 0l-41 112H248L206 0H-8l299 701h214L794 0H572zM306 264h170l-84 229-86-229zm26 655l23-23 23-60q0-36-23-59t-60-24q-36 0-59 23t-23 60q0 36 23 59t59 24q37 0 60-23zm197 0l23-23 23-60q0-36-23-59t-60-24q-36 0-59 23t-23 60q0 36 23 59t59 24q37 0 60-23z"/><glyph unicode="Å" glyph-name="Aring" horiz-adv-x="786" d="M572 0l-41 112H248L206 0H-8l299 701h214L794 0H572zM306 264h170l-84 229-86-229zm138 714l35-35 36-86q0-50-35-85t-86-36q-50 0-85 35t-36 86q0 50 35 85t86 36q50 0 85-35zm-67-80l-12-12-13-29q0-17 12-29t30-12q17 0 29 12t13 29q0 17-12 29t-30 12q-17 0-29-12z"/><glyph unicode="Æ" glyph-name="AE" horiz-adv-x="1127" d="M711 160h375V0H503v133H276L208 0H-8l394 701h690V541H711V431h331V271H711V160zM353 283h150v259h-18L353 283z"/><glyph unicode="Ç" glyph-name="Ccedilla" horiz-adv-x="690" d="M439 168l45 22 82 60 120-128q-50-55-118-90T428-12l-17-45q83-21 83-82 0-50-38-75t-95-25q-57 0-114 20l28 85q20-8 48-8 18 0 29 5t12 15q0 11-16 17t-40 6h-20l29 91Q230 7 163 57T57 184 19 353q0 102 49 184t135 130 193 47q79 0 158-34t132-91L566 446q-33 44-78 69t-89 26q-47 0-85-24t-60-66-22-96q0-53 22-95t60-67 85-25q40 0 85 22z"/><glyph unicode="È" glyph-name="Egrave" horiz-adv-x="683" d="M59 701h573V541H267V431h331V271H267V160h375V0H59v701zm274 227l109-170-133-10-135 122 159 58z"/><glyph unicode="É" glyph-name="Eacute" horiz-adv-x="683" d="M59 701h573V541H267V431h331V271H267V160h375V0H59v701zm316 227l158-58-153-122-132 10 127 170z"/><glyph unicode="Ê" glyph-name="Ecircumflex" horiz-adv-x="683" d="M59 701h573V541H267V431h331V271H267V160h375V0H59v701zm487 54H412l-62 69-63-69H153l110 157h173l110-157z"/><glyph unicode="Ë" glyph-name="Edieresis" horiz-adv-x="683" d="M59 701h573V541H267V431h331V271H267V160h375V0H59v701zm228 218l23-23 23-60q0-36-23-59t-60-24q-36 0-59 23t-23 60q0 36 23 59t59 24q37 0 60-23zm197 0l23-23 23-60q0-36-23-59t-60-24q-36 0-59 23t-23 60q0 36 23 59t59 24q37 0 60-23z"/><glyph unicode="Ì" glyph-name="Igrave" horiz-adv-x="326" d="M59 701h208V0H59v701zm88 227l109-170-133-10-135 122 159 58z"/><glyph unicode="Í" glyph-name="Iacute" horiz-adv-x="326" d="M59 701h208V0H59v701zm130 227l158-58-153-122-132 10 127 170z"/><glyph unicode="Î" glyph-name="Icircumflex" horiz-adv-x="326" d="M59 701h208V0H59v701zm301 54H226l-62 69-63-69H-33L77 912h173l110-157z"/><glyph unicode="Ï" glyph-name="Idieresis" horiz-adv-x="326" d="M59 701h208V0H59v701zm42 218l23-23 23-60q0-36-23-59t-60-24q-36 0-59 23t-23 60q0 36 23 59t59 24q37 0 60-23zm197 0l23-23 23-60q0-36-23-59t-60-24q-36 0-59 23t-23 60q0 36 23 59t59 24q37 0 60-23z"/><glyph unicode="Ð" glyph-name="Eth" horiz-adv-x="762" d="M478 701l85-43 133-123 47-184q0-104-48-184T560 44 359 0H59v305H-5v91h64v305h307q112 0 197-43zm-35-538l44 51 44 135q0 84-47 136t-122 52h-95V396h147v-91H267V163h105q71 0 115 51z"/><glyph unicode="Ñ" glyph-name="Ntilde" horiz-adv-x="783" d="M534 701h190V0H547L250 390V0H59v701h178l297-391v391zm53 133l-24-41-79-41q-24 0-44 7t-46 20q-30 16-43 16-26 0-28-40H214q0 84 24 125t79 42q24 0 44-7t48-20q11-6 22-10t18-5q15 0 22 9t8 30h108q0-85-24-126z"/><glyph unicode="Ò" glyph-name="Ograve" horiz-adv-x="802" d="M509 714l87-47 137-129 50-186q0-104-49-187T597 34 401-14q-109 0-196 47T69 164 19 352q0 103 49 185t137 130 196 47q108 0 195-47zM358 541l-39-25-63-68-24-97q0-53 23-97t63-69 86-26q45 0 83 25t61 69 22 98q0 53-22 96t-60 69-84 25q-46 0-85-25zm27 387l109-170-133-10-135 122 159 58z"/><glyph unicode="Ó" glyph-name="Oacute" horiz-adv-x="802" d="M509 714l87-47 137-129 50-186q0-104-49-187T597 34 401-14q-109 0-196 47T69 164 19 352q0 103 49 185t137 130 196 47q108 0 195-47zM358 541l-39-25-63-68-24-97q0-53 23-97t63-69 86-26q45 0 83 25t61 69 22 98q0 53-22 96t-60 69-84 25q-46 0-85-25zm69 387l158-58-153-122-132 10 127 170z"/><glyph unicode="Ô" glyph-name="Ocircumflex" horiz-adv-x="802" d="M509 714l87-47 137-129 50-186q0-104-49-187T597 34 401-14q-109 0-196 47T69 164 19 352q0 103 49 185t137 130 196 47q108 0 195-47zM358 541l-39-25-63-68-24-97q0-53 23-97t63-69 86-26q45 0 83 25t61 69 22 98q0 53-22 96t-60 69-84 25q-46 0-85-25zm240 214H464l-62 69-63-69H205l110 157h173l110-157z"/><glyph unicode="Õ" glyph-name="Otilde" horiz-adv-x="802" d="M509 714l87-47 137-129 50-186q0-104-49-187T597 34 401-14q-109 0-196 47T69 164 19 352q0 103 49 185t137 130 196 47q108 0 195-47zM358 541l-39-25-63-68-24-97q0-53 23-97t63-69 86-26q45 0 83 25t61 69 22 98q0 53-22 96t-60 69-84 25q-46 0-85-25zm236 293l-24-41-79-41q-24 0-44 7t-46 20q-30 16-43 16-26 0-28-40H221q0 84 24 125t79 42q24 0 44-7t48-20q11-6 22-10t18-5q15 0 22 9t8 30h108q0-85-24-126z"/><glyph unicode="Ö" glyph-name="Odieresis" horiz-adv-x="802" d="M509 714l87-47 137-129 50-186q0-104-49-187T597 34 401-14q-109 0-196 47T69 164 19 352q0 103 49 185t137 130 196 47q108 0 195-47zM358 541l-39-25-63-68-24-97q0-53 23-97t63-69 86-26q45 0 83 25t61 69 22 98q0 53-22 96t-60 69-84 25q-46 0-85-25zm-19 378l23-23 23-60q0-36-23-59t-60-24q-36 0-59 23t-23 60q0 36 23 59t59 24q37 0 60-23zm197 0l23-23 23-60q0-36-23-59t-60-24q-36 0-59 23t-23 60q0 36 23 59t59 24q37 0 60-23z"/><glyph unicode="×" glyph-name="multiply" horiz-adv-x="515" d="M463 443L348 328l115-115-90-90-115 115-116-115-89 90 115 115L53 443l89 90 116-115 115 115 90-90z"/><glyph unicode="Ø" glyph-name="Oslash" horiz-adv-x="802" d="M704 587l39-74 40-165q0-102-49-184T597 35 401-12q-77 0-143 24l-40-67H97l69 114Q97 108 58 183T19 348q0 102 49 183t137 127 196 46q71 0 139-22l44 73h121l-72-119q71-49 110-123zM232 282l37-51 176 294q-22 5-41 5-46 0-85-24t-63-66-24-93q0-65 37-116zm217-121l38 24 61 67 22 95q0 34-10 64t-29 55L353 169q26-8 51-8 45 0 83 24z"/><glyph unicode="Ù" glyph-name="Ugrave" horiz-adv-x="745" d="M256 231l34-36 85-36q50 0 82 35t32 96v411h208V290q0-92-39-160T545 24 375-14q-98 0-172 37T89 129 48 290v411h208V290q0-59 34-95zm101 697l109-170-133-10-135 122 159 58z"/><glyph unicode="Ú" glyph-name="Uacute" horiz-adv-x="745" d="M256 231l34-36 85-36q50 0 82 35t32 96v411h208V290q0-92-39-160T545 24 375-14q-98 0-172 37T89 129 48 290v411h208V290q0-59 34-95zm143 697l158-58-153-122-132 10 127 170z"/><glyph unicode="Û" glyph-name="Ucircumflex" horiz-adv-x="745" d="M256 231l34-36 85-36q50 0 82 35t32 96v411h208V290q0-92-39-160T545 24 375-14q-98 0-172 37T89 129 48 290v411h208V290q0-59 34-95zm314 524H436l-62 69-63-69H177l110 157h173l110-157z"/><glyph unicode="Ü" glyph-name="Udieresis" horiz-adv-x="745" d="M256 231l34-36 85-36q50 0 82 35t32 96v411h208V290q0-92-39-160T545 24 375-14q-98 0-172 37T89 129 48 290v411h208V290q0-59 34-95zm55 688l23-23 23-60q0-36-23-59t-60-24q-36 0-59 23t-23 60q0 36 23 59t59 24q37 0 60-23zm197 0l23-23 23-60q0-36-23-59t-60-24q-36 0-59 23t-23 60q0 36 23 59t59 24q37 0 60-23z"/><glyph unicode="Ý" glyph-name="Yacute" horiz-adv-x="702" d="M709 701L457 222V0H249v218L-8 701h208l153-286 149 286h207zM377 928l158-58-153-122-132 10 127 170z"/><glyph unicode="Þ" glyph-name="Thorn" horiz-adv-x="694" d="M467 612l67-29 103-85 36-131q0-79-36-138t-103-90-157-32H267V0H59v701h208v-89h110q90 0 157-29zm-56-347l24 25 24 71q0 43-24 67t-67 25H267V265h101q43 0 67 25z"/><glyph unicode="ß" glyph-name="germandbls" horiz-adv-x="667" d="M48 572l34 58 98 89 147 32q81 0 142-25t95-71 34-107q0-49-23-93t-63-71q58-18 93-63t36-105q0-64-35-113t-99-76T356 0h-48v142h31q106 0 106 77 0 74-112 74h-21v142q90 0 90 83t-73 83q-79 0-79-92V0H48v494q0 78 34 136z"/><glyph unicode="à" glyph-name="agrave" horiz-adv-x="607" d="M432 552l64-52 65-147V0H363v60q-25-33-65-51T204-9Q118-9 69 37T20 162q0 79 53 121t157 44h133v2q0 34-24 53t-70 19q-33 0-76-10t-88-29L55 496q138 56 262 56 115 0 179-52zM302 123l25 15 36 41v49h-92q-61 0-61-51 0-26 16-40t45-14q31 0 56 15zm-14 652l109-170-133-10-135 122 159 58z"/><glyph unicode="á" glyph-name="aacute" horiz-adv-x="607" d="M432 552l64-52 65-147V0H363v60q-25-33-65-51T204-9Q118-9 69 37T20 162q0 79 53 121t157 44h133v2q0 34-24 53t-70 19q-33 0-76-10t-88-29L55 496q138 56 262 56 115 0 179-52zM302 123l25 15 36 41v49h-92q-61 0-61-51 0-26 16-40t45-14q31 0 56 15zm29 652l158-58-153-122-132 10 127 170z"/><glyph unicode="â" glyph-name="acircumflex" horiz-adv-x="607" d="M432 552l64-52 65-147V0H363v60q-25-33-65-51T204-9Q118-9 69 37T20 162q0 79 53 121t157 44h133v2q0 34-24 53t-70 19q-33 0-76-10t-88-29L55 496q138 56 262 56 115 0 179-52zM302 123l25 15 36 41v49h-92q-61 0-61-51 0-26 16-40t45-14q31 0 56 15zm198 486H366l-62 69-63-69H107l110 157h173l110-157z"/><glyph unicode="ã" glyph-name="atilde" horiz-adv-x="607" d="M432 552l64-52 65-147V0H363v60q-25-33-65-51T204-9Q118-9 69 37T20 162q0 79 53 121t157 44h133v2q0 34-24 53t-70 19q-33 0-76-10t-88-29L55 496q138 56 262 56 115 0 179-52zM302 123l25 15 36 41v49h-92q-61 0-61-51 0-26 16-40t45-14q31 0 56 15zm195 555l-24-41-79-41q-24 0-44 7t-46 20q-30 16-43 16-26 0-28-40H124q0 84 24 125t79 42q24 0 44-7t48-20q11-6 22-10t18-5q15 0 22 9t8 30h108q0-85-24-126z"/><glyph unicode="ä" glyph-name="adieresis" horiz-adv-x="607" d="M432 552l64-52 65-147V0H363v60q-25-33-65-51T204-9Q118-9 69 37T20 162q0 79 53 121t157 44h133v2q0 34-24 53t-70 19q-33 0-76-10t-88-29L55 496q138 56 262 56 115 0 179-52zM302 123l25 15 36 41v49h-92q-61 0-61-51 0-26 16-40t45-14q31 0 56 15zm-60 651l23-23 23-60q0-36-23-59t-59-24q-36 0-59 23t-23 60q0 36 23 59t59 24q36 0 59-23zm197 0l23-23 23-60q0-36-23-59t-59-24q-36 0-59 23t-23 60q0 36 23 59t59 24q36 0 59-23z"/><glyph unicode="å" glyph-name="aring" horiz-adv-x="607" d="M432 552l64-52 65-147V0H363v60q-25-33-65-51T204-9Q118-9 69 37T20 162q0 79 53 121t157 44h133v2q0 34-24 53t-70 19q-33 0-76-10t-88-29L55 496q138 56 262 56 115 0 179-52zM302 123l25 15 36 41v49h-92q-61 0-61-51 0-26 16-40t45-14q31 0 56 15zm52 698l35-35 36-86q0-50-35-85t-86-36q-50 0-85 35t-36 86q0 50 35 85t86 36q50 0 85-35zm-67-80l-12-12-13-29q0-17 12-29t30-12q17 0 29 12t13 29q0 17-12 29t-30 12q-17 0-29-12z"/><glyph unicode="æ" glyph-name="ae" horiz-adv-x="962" d="M580 184l30-21 69-21q65 0 120 52L904 91q-43-48-104-73T661-7q-76 0-132 27t-89 79q-31-53-86-81T221-10q-93 0-147 46T20 161q0 79 54 120t157 43h134v14q-3 30-27 46t-67 17q-35 0-80-10t-90-29L55 497q139 55 263 55 116 0 177-52 65 51 161 51 88 0 153-36t99-104 35-158q0-17-1-26H572l1-8q7-35 37-56zm161 178l-23 26-61 27q-35 0-58-25t-31-68h172q1 40-22 66zM243 229l-16-13-17-39q0-26 16-41t46-16q29 0 53 14t41 40l-1 55h-92q-30 0-46-13z"/><glyph unicode="ç" glyph-name="ccedilla" horiz-adv-x="562" d="M529 76l-53-35L349-4l-19-53q83-21 83-82 0-50-38-75t-95-25q-57 0-114 20l28 85q20-8 48-8 18 0 29 5t12 15q0 11-16 17t-40 6h-20l31 97Q137 17 78 89T19 270q0 84 35 147t100 99 150 35q85 0 150-37t101-105l-155-76q-14 26-36 40t-51 14q-40 0-65-32t-25-84q0-53 24-85t66-33q61 0 86 60l157-79q-27-58-80-93z"/><glyph unicode="è" glyph-name="egrave" horiz-adv-x="609" d="M440 551l75-79 75-218q0-21-1-31H223q12-39 39-60t67-21q63 0 120 52L554 91q-43-48-104-73T312-7q-90 0-156 34T55 124 19 270q0 84 36 147t101 99 150 35q134 0 209-79zm-49-189l-23 26-60 26q-35 0-58-25t-31-67h171q1 40-22 66zM286 775l109-170-133-10-135 122 159 58z"/><glyph unicode="é" glyph-name="eacute" horiz-adv-x="609" d="M440 551l75-79 75-218q0-21-1-31H223q12-39 39-60t67-21q63 0 120 52L554 91q-43-48-104-73T312-7q-90 0-156 34T55 124 19 270q0 84 36 147t101 99 150 35q134 0 209-79zm-49-189l-23 26-60 26q-35 0-58-25t-31-67h171q1 40-22 66zm-62 413l158-58-153-122-132 10 127 170z"/><glyph unicode="ê" glyph-name="ecircumflex" horiz-adv-x="609" d="M440 551l75-79 75-218q0-21-1-31H223q12-39 39-60t67-21q63 0 120 52L554 91q-43-48-104-73T312-7q-90 0-156 34T55 124 19 270q0 84 36 147t101 99 150 35q134 0 209-79zm-49-189l-23 26-60 26q-35 0-58-25t-31-67h171q1 40-22 66zm107 247H364l-62 69-63-69H105l110 157h173l110-157z"/><glyph unicode="ë" glyph-name="edieresis" horiz-adv-x="609" d="M440 551l75-79 75-218q0-21-1-31H223q12-39 39-60t67-21q63 0 120 52L554 91q-43-48-104-73T312-7q-90 0-156 34T55 124 19 270q0 84 36 147t101 99 150 35q134 0 209-79zm-49-189l-23 26-60 26q-35 0-58-25t-31-67h171q1 40-22 66zM240 774l23-23 23-60q0-36-23-59t-59-24q-36 0-59 23t-23 60q0 36 23 59t59 24q36 0 59-23zm197 0l23-23 23-60q0-36-23-59t-59-24q-36 0-59 23t-23 60q0 36 23 59t59 24q36 0 59-23z"/><glyph unicode="ì" glyph-name="igrave" horiz-adv-x="324" d="M61 544h202V0H61v544zm86 231l109-170-133-10-135 122 159 58z"/><glyph unicode="í" glyph-name="iacute" horiz-adv-x="324" d="M61 544h202V0H61v544zm129 231l158-58-153-122-132 10 127 170z"/><glyph unicode="î" glyph-name="icircumflex" horiz-adv-x="324" d="M61 544h202V0H61v544zm298 65H225l-62 69-63-69H-34L76 766h173l110-157z"/><glyph unicode="ï" glyph-name="idieresis" horiz-adv-x="324" d="M61 544h202V0H61v544zm42 230l23-23 23-60q0-36-23-59t-59-24q-36 0-59 23t-23 60q0 36 23 59t59 24q36 0 59-23zm193 0l23-23 23-60q0-36-23-59t-59-24q-36 0-59 23t-23 60q0 36 23 59t59 24q36 0 59-23z"/><glyph unicode="ð" glyph-name="eth" horiz-adv-x="611" d="M513 556l39-85 40-177q0-91-38-160T447 28 284-10q-81 0-142 29t-94 82-33 125q0 66 28 116t79 77 120 28q45 0 86-13t66-36q-2 41-28 81t-72 78l-177-80-35 72 135 62q-59 34-125 59l135 81q76-28 141-71l144 66 35-74-107-49q73-67 112-152zM330 157l23 21 23 57q0 35-23 56t-62 22q-38 0-60-20t-23-57q0-36 22-57t61-22q39 0 62 21z"/><glyph unicode="ñ" glyph-name="ntilde" horiz-adv-x="678" d="M494 552l44-25 69-73 25-109V0H430v287q0 40-21 64t-57 24q-41-1-65-30t-24-76V0H61v544h202v-84q29 45 72 68t101 24q58 0 102-25zm56 126l-24-41-79-41q-24 0-44 7t-46 20q-30 16-43 16-26 0-28-40H177q0 84 24 125t79 42q24 0 44-7t48-20q11-6 22-10t18-5q15 0 22 9t8 30h108q0-85-24-126z"/><glyph unicode="ò" glyph-name="ograve" horiz-adv-x="643" d="M413 551l68-34 105-98 38-147q0-83-37-146T481 28 322-7q-91 0-159 34T57 125 19 272q0 84 37 147t106 97 160 35q91 0 159-34zM277 391l-27-33-27-88q0-55 27-88t72-33q44 0 71 33t27 88q0 54-27 87t-71 34q-45 0-72-33zm29 384l109-170-133-10-135 122 159 58z"/><glyph unicode="ó" glyph-name="oacute" horiz-adv-x="643" d="M413 551l68-34 105-98 38-147q0-83-37-146T481 28 322-7q-91 0-159 34T57 125 19 272q0 84 37 147t106 97 160 35q91 0 159-34zM277 391l-27-33-27-88q0-55 27-88t72-33q44 0 71 33t27 88q0 54-27 87t-71 34q-45 0-72-33zm72 384l158-58-153-122-132 10 127 170z"/><glyph unicode="ô" glyph-name="ocircumflex" horiz-adv-x="643" d="M413 551l68-34 105-98 38-147q0-83-37-146T481 28 322-7q-91 0-159 34T57 125 19 272q0 84 37 147t106 97 160 35q91 0 159-34zM277 391l-27-33-27-88q0-55 27-88t72-33q44 0 71 33t27 88q0 54-27 87t-71 34q-45 0-72-33zm241 218H384l-62 69-63-69H125l110 157h173l110-157z"/><glyph unicode="õ" glyph-name="otilde" horiz-adv-x="643" d="M413 551l68-34 105-98 38-147q0-83-37-146T481 28 322-7q-91 0-159 34T57 125 19 272q0 84 37 147t106 97 160 35q91 0 159-34zM277 391l-27-33-27-88q0-55 27-88t72-33q44 0 71 33t27 88q0 54-27 87t-71 34q-45 0-72-33zm238 287l-24-41-79-41q-24 0-44 7t-46 20q-30 16-43 16-26 0-28-40H142q0 84 24 125t79 42q24 0 44-7t48-20q11-6 22-10t18-5q15 0 22 9t8 30h108q0-85-24-126z"/><glyph unicode="ö" glyph-name="odieresis" horiz-adv-x="643" d="M413 551l68-34 105-98 38-147q0-83-37-146T481 28 322-7q-91 0-159 34T57 125 19 272q0 84 37 147t106 97 160 35q91 0 159-34zM277 391l-27-33-27-88q0-55 27-88t72-33q44 0 71 33t27 88q0 54-27 87t-71 34q-45 0-72-33zm-17 383l23-23 23-60q0-36-23-59t-59-24q-36 0-59 23t-23 60q0 36 23 59t59 24q36 0 59-23zm197 0l23-23 23-60q0-36-23-59t-59-24q-36 0-59 23t-23 60q0 36 23 59t59 24q36 0 59-23z"/><glyph unicode="÷" glyph-name="divide" horiz-adv-x="515" d="M294 593l23-23 24-62q0-38-24-62t-61-24q-37 0-61 24t-25 62q0 37 24 61t62 24q38 0 61-23zM31 391h453V265H31v126zm263-157l23-23 24-62q0-38-24-62t-61-24q-37 0-61 24t-25 62q0 37 24 61t62 24q38 0 61-23z"/><glyph unicode="ø" glyph-name="oslash" horiz-adv-x="643" d="M569 458l27-57 28-129q0-83-37-146T481 28 322-7q-73 0-129 22l-66-98H40l89 131q-53 37-81 94T19 272q0 84 37 147t106 97 160 35q72 0 132-23l67 99h87l-90-133q51-36 78-93zM210 226l16-34 140 206q-20 9-44 9-51 0-81-37t-31-100q0-44 16-78zm162-94l31 37 31 101q0 42-16 76L278 141q20-9 44-9 50 0 81 37z"/><glyph unicode="ù" glyph-name="ugrave" horiz-adv-x="668" d="M607 544V0H405v81q-28-44-70-67T238-9q-57 0-100 25T70 89 46 199v345h202V256q0-40 20-63t53-24q39 1 61 30t23 76v269h202zM318 775l109-170-133-10-135 122 159 58z"/><glyph unicode="ú" glyph-name="uacute" horiz-adv-x="668" d="M607 544V0H405v81q-28-44-70-67T238-9q-57 0-100 25T70 89 46 199v345h202V256q0-40 20-63t53-24q39 1 61 30t23 76v269h202zM361 775l158-58-153-122-132 10 127 170z"/><glyph unicode="û" glyph-name="ucircumflex" horiz-adv-x="668" d="M607 544V0H405v81q-28-44-70-67T238-9q-57 0-100 25T70 89 46 199v345h202V256q0-40 20-63t53-24q39 1 61 30t23 76v269h202zm-77 65H396l-62 69-63-69H137l110 157h173l110-157z"/><glyph unicode="ü" glyph-name="udieresis" horiz-adv-x="668" d="M607 544V0H405v81q-28-44-70-67T238-9q-57 0-100 25T70 89 46 199v345h202V256q0-40 20-63t53-24q39 1 61 30t23 76v269h202zM272 774l23-23 23-60q0-36-23-59t-59-24q-36 0-59 23t-23 60q0 36 23 59t59 24q36 0 59-23zm197 0l23-23 23-60q0-36-23-59t-59-24q-36 0-59 23t-23 60q0 36 23 59t59 24q36 0 59-23z"/><glyph unicode="ý" glyph-name="yacute" horiz-adv-x="605" d="M353-126l-56-38-138-39q-50 0-92 14t-83 46L68-8q19-17 36-24t37-7q42 0 59 35l10 19-225 529h207l119-333 101 333h201L385-46q-32-80-88-118zm-23 901l158-58-153-122-132 10 127 170z"/><glyph unicode="þ" glyph-name="thorn" horiz-adv-x="688" d="M324 551h93q75 0 132-35t88-99 32-148q0-83-30-145t-87-97T422-7q-48 0-87 18t-67 53v-258H66v936h202V481q56 70 149 70zm-2-156l-27-33-27-88q0-54 27-87t71-34q45 0 72 33t27 88q0 54-27 87t-72 34q-44 0-71-33z"/><glyph unicode="ÿ" glyph-name="ydieresis" horiz-adv-x="605" d="M353-126l-56-38-138-39q-50 0-92 14t-83 46L68-8q19-17 36-24t37-7q42 0 59 35l10 19-225 529h207l119-333 101 333h201L385-46q-32-80-88-118zM241 774l23-23 23-60q0-36-23-59t-59-24q-36 0-59 23t-23 60q0 36 23 59t59 24q36 0 59-23zm197 0l23-23 23-60q0-36-23-59t-59-24q-36 0-59 23t-23 60q0 36 23 59t59 24q36 0 59-23z"/><glyph unicode="–" glyph-name="endash" horiz-adv-x="409" d="M0 371h409V245H0v126z"/><glyph unicode="—" glyph-name="emdash" horiz-adv-x="627" d="M0 371h627V245H0v126z"/><glyph unicode="‘" glyph-name="quoteleft" horiz-adv-x="254" d="M183 590l9-19 10-41q0-41-27-67t-68-27q-39 0-66 25t-27 68q0 35 25 74l88 139h95l-57-140q18-12 27-31z"/><glyph unicode="’" glyph-name="quoteright" horiz-adv-x="254" d="M168 742l27-25 27-68q0-35-25-74l-88-139H14l57 140q-18 12-27 31t-10 41q0 41 27 67t68 27q39 0 66-25z"/><glyph unicode="‚" glyph-name="quotesinglbase" horiz-adv-x="254" d="M168 180l27-25 27-68q0-35-25-74l-88-139H14L71 14Q53 26 44 45T34 86q0 41 27 67t68 27q39 0 66-25z"/><glyph unicode="“" glyph-name="quotedblleft" horiz-adv-x="458" d="M183 590l9-19 10-41q0-41-27-67t-68-27q-39 0-66 25t-27 68q0 35 25 74l88 139h95l-57-140q18-12 27-31zm204 0l9-19 10-41q0-41-27-67t-68-27q-39 0-66 25t-27 68q0 35 25 74l88 139h95l-57-140q18-12 27-31z"/><glyph unicode="”" glyph-name="quotedblright" horiz-adv-x="458" d="M168 742l27-25 27-68q0-35-25-74l-88-139H14l57 140q-18 12-27 31t-10 41q0 41 27 67t68 27q39 0 66-25zm204 0l27-25 27-68q0-35-25-74l-88-139h-95l57 140q-18 12-27 31t-10 41q0 41 27 67t68 27q39 0 66-25z"/><glyph unicode="„" glyph-name="quotedblbase" horiz-adv-x="458" d="M168 180l27-25 27-68q0-35-25-74l-88-139H14L71 14Q53 26 44 45T34 86q0 41 27 67t68 27q39 0 66-25zm204 0l27-25 27-68q0-35-25-74l-88-139h-95l57 140q-18 12-27 31t-10 41q0 41 27 67t68 27q39 0 66-25z"/><glyph unicode="•" glyph-name="bullet" horiz-adv-x="350" d="M237 421l39-39 40-102q0-63-39-102t-103-40q-62 0-101 39T33 280q0 62 39 101t102 40q63 0 102-39z"/><glyph unicode="‹" glyph-name="guilsinglleft" horiz-adv-x="283" d="M114 459h162L170 270 276 80H114L-9 270l123 189z"/><glyph unicode="›" glyph-name="guilsinglright" horiz-adv-x="283" d="M169 80H7l106 189L7 459h162l123-190L169 80z"/></font>
</defs>
</svg>
