<?xml version="1.0" standalone="no"?>
<!DOCTYPE svg PUBLIC "-//W3C//DTD SVG 1.1//EN" "http://www.w3.org/Graphics/SVG/1.1/DTD/svg11.dtd">
<svg xmlns="http://www.w3.org/2000/svg">
<defs >
<font id="Montserrat" horiz-adv-x="618" ><font-face
    font-family="Montserrat"
    units-per-em="1000"
    panose-1="0 0 8 0 0 0 0 0 0 0"
    ascent="968"
    descent="-251"
    alphabetic="0" />
<glyph unicode=" " glyph-name="space" horiz-adv-x="222" />
<glyph unicode="!" glyph-name="exclam" horiz-adv-x="258" d="M51 697H220V518L189 243H82L51 518V697ZM170 165T194 141T218 79Q218 41 194 17T132 -8Q95 -8 71 16T47 79Q47 117 70 141T132 165Q170 165 194 141Z" />
<glyph unicode="&quot;" glyph-name="quotedbl" horiz-adv-x="446" d="M60 701H194V423H60V701ZM252 701H386V423H252V701Z" />
<glyph unicode="#" glyph-name="numbersign" horiz-adv-x="736" d="M708 415H573L555 277H689L675 153H540L521 0H393L412 153H276L257 0H129L148 153H14L28 277H163L181 415H47L61 540H196L216 701H344L324 540H460L480 701H608L588 540H722L708 415ZM427 277L445
415H309L291 277H427Z" />
<glyph unicode="$" glyph-name="dollar" horiz-adv-x="646" d="M621 118T561 63T401 -7V-155H268V-6Q197 5 132 33T16 103L87 246Q140 199 212 169T341 139Q382 139 405 154T429 198Q429 222 412 238T368 263T293 286Q221 306 174 326T94 388T60 499Q60 583 115
638T268 709V851H401V711Q461 704 518 685T620 636L551 490Q495 523 432 544T325 565Q291 565 272 553T252 516Q252 493 269 478T311 453T385 428Q458 407 505 386T587 322T621 208Q621 118 561 63Z" />
<glyph unicode="%" glyph-name="percent" horiz-adv-x="994" d="M309 704T362 647T415 492Q415 394 362 337T219 279Q129 279 76 336T22 492Q22 589 75 646T219 704Q309 704 362 647ZM180 608T158 577T136 492Q136 438 158 407T219 376Q258 376 280 407T302 492Q302
546 280 577T219 608Q180 608 158 577ZM683 701H806L308 0H184L683 701ZM866 421T919 364T972 209Q972 111 919 54T776 -4Q686 -4 633 53T579 209Q579 306 632 363T776 421Q866 421 919 364ZM737 325T715 294T693 209Q693 155 715 124T776 93Q815 93 837 124T859
209Q859 263 837 294T776 325Q737 325 715 294Z" />
<glyph unicode="&amp;" glyph-name="ampersand" horiz-adv-x="688" d="M591 -31L554 5Q532 25 493 64Q402 -8 295 -8Q227 -8 172 18T86 90T55 196Q55 261 92 304T193 383Q162 427 149 463T135 538Q135 616 189 662T336 708Q395 708 441 688T512 632T538 550Q538
484 495 441T375 358Q414 314 481 248Q508 296 527 359L640 277Q614 208 577 155L614 120L681 57L591 -31ZM273 497T308 443Q352 467 375 491T399 548Q399 574 383 590T338 607Q308 607 291 588T273 539Q273 497 308 443ZM352 118T401 154Q321 232 262 298Q232
279 216 258T200 210Q200 169 229 144T302 118Q352 118 401 154Z" />
<glyph unicode="&apos;" glyph-name="quotesingle" horiz-adv-x="254" d="M60 701H194V423H60V701Z" />
<glyph unicode="(" glyph-name="parenleft" horiz-adv-x="345" d="M288 651T256 539T224 309Q224 191 256 79T345 -124H185Q123 -36 90 75T57 309Q57 431 90 542T185 742H345Q288 651 256 539Z" />
<glyph unicode=")" glyph-name="parenright" horiz-adv-x="345" d="M160 742Q222 654 255 543T288 309Q288 187 255 76T160 -124H0Q57 -33 89 79T121 309Q121 427 89 539T0 742H160Z" />
<glyph unicode="*" glyph-name="asterisk" horiz-adv-x="381" d="M146 719H235L233 625L314 673L359 595L275 550L359 504L314 425L233 474L235 380H146L148 475L67 426L22 504L105 550L22 595L67 674L148 625L146 719Z" />
<glyph unicode="+" glyph-name="plus" horiz-adv-x="511" d="M478 384V270H312V104H199V270H32V384H199V551H312V384H478Z" />
<glyph unicode="," glyph-name="comma" horiz-adv-x="243" d="M159 164T183 142T208 79Q208 49 185 11L105 -122H20L72 11Q38 35 38 79Q38 116 62 140T123 164Q159 164 183 142Z" />
<glyph unicode="-" glyph-name="hyphen" horiz-adv-x="375" d="M55 364H320V250H55V364Z" />
<glyph unicode="." glyph-name="period" horiz-adv-x="245" d="M160 165T184 141T208 79Q208 41 184 17T122 -8Q85 -8 61 16T37 79Q37 117 60 141T122 165Q160 165 184 141Z" />
<glyph unicode="/" glyph-name="slash" horiz-adv-x="355" d="M286 810H436L112 -110H-38L286 810Z" />
<glyph unicode="0" glyph-name="zero" horiz-adv-x="703" d="M502 707T582 615T663 351Q663 179 583 87T353 -6Q202 -6 122 86T41 351Q41 523 121 615T353 707Q502 707 582 615ZM287 571T258 520T229 351Q229 233 258 182T353 130Q417 130 446 182T476 351Q476
468 447 519T353 571Q287 571 258 520Z" />
<glyph unicode="1" glyph-name="one" horiz-adv-x="404" d="M-15 701H303V0H120V551H-15V701Z" />
<glyph unicode="2" glyph-name="two" horiz-adv-x="605" d="M572 147V0H38L37 121L292 383Q322 414 341 445T360 498Q360 527 339 542T280 558Q238 558 187 535T87 469L17 604Q162 709 308 709Q378 709 433 686T520 621T552 525Q552 471 517 414T416 291L273 147H572Z" />
<glyph unicode="3" glyph-name="three" horiz-adv-x="603" d="M467 401T518 351T570 221Q570 154 535 102T436 21T286 -8Q209 -8 135 15T9 78L77 207Q121 170 171 151T271 132Q329 132 360 154T391 219Q391 261 360 283T270 305H152V405L314 561H46V701H536V595L345
420L382 413Q467 401 518 351Z" />
<glyph unicode="4" glyph-name="four" horiz-adv-x="607" d="M574 290V151H484V0H316V151H-1V275L198 701H372L185 290H316V439H484V290H574Z" />
<glyph unicode="5" glyph-name="five" horiz-adv-x="625" d="M401 447T462 420T557 345T591 235Q591 162 556 107T456 22T305 -8Q235 -8 161 16T28 79L96 211Q193 133 285 133Q337 133 366 156T395 221Q395 262 367 283T281 305Q148 305 89 301V701H560V554H257V447H320Q401
447 462 420Z" />
<glyph unicode="6" glyph-name="six" horiz-adv-x="630" d="M470 547T433 558T355 570Q274 570 234 522T195 386Q248 461 358 461Q425 461 475 433T553 353T581 233Q581 160 549 106T459 22T323 -8Q231 -8 164 34T61 154T25 339Q25 450 64 534T176 663T344 709Q402
709 462 693T567 651L499 525Q470 547 433 558ZM269 330T242 303T214 232Q214 190 240 163T316 136Q363 136 390 161T417 234Q417 279 391 304T319 330Q269 330 242 303Z" />
<glyph unicode="7" glyph-name="seven" horiz-adv-x="589" d="M13 701H572V574L308 0H114L369 554H175L174 455H13V701Z" />
<glyph unicode="8" glyph-name="eight" horiz-adv-x="631" d="M415 709T482 658T549 519Q549 475 527 437T466 375Q521 350 553 303T585 197Q585 135 551 89T452 17T303 -8Q218 -8 155 17T56 87T21 194Q21 253 56 301T149 375Q107 400 82 440T57 524Q57 580 87
622T172 686T302 709Q415 709 482 658ZM258 586T234 566T209 509Q209 473 233 454T303 434Q349 434 373 453T397 509Q397 546 373 566T303 586Q258 586 234 566ZM250 300T222 278T193 213Q193 171 221 149T303 126Q356 126 385 148T414 213Q414 255 385 277T303
300Q250 300 222 278Z" />
<glyph unicode="9" glyph-name="nine" horiz-adv-x="629" d="M135 154T172 143T249 131Q329 131 370 179T409 316Q356 240 246 240Q179 240 129 268T52 348T24 468Q24 541 56 595T146 679T281 709Q373 709 440 667T543 547T579 362Q579 251 540 167T428 38T260
-8Q202 -8 142 8T38 50L105 176Q135 154 172 143ZM241 565T215 540T189 467Q189 422 214 397T285 371Q335 371 362 398T390 470Q390 511 364 538T288 565Q241 565 215 540Z" />
<glyph unicode=":" glyph-name="colon" horiz-adv-x="245" d="M160 462T184 438T208 376Q208 338 184 314T122 289Q85 289 61 313T37 376Q37 414 60 438T122 462Q160 462 184 438ZM160 165T184 141T208 79Q208 41 184 17T122 -8Q85 -8 61 16T37 79Q37 117 60 141T122
165Q160 165 184 141Z" />
<glyph unicode=";" glyph-name="semicolon" horiz-adv-x="244" d="M160 462T184 438T208 376Q208 338 184 314T122 289Q85 289 61 313T37 376Q37 414 60 438T122 462Q160 462 184 438ZM159 164T183 142T208 79Q208 49 185 11L105 -122H20L72 11Q38 35 38 79Q38
116 62 140T123 164Q159 164 183 142Z" />
<glyph unicode="&lt;" glyph-name="less" horiz-adv-x="511" d="M478 582V455L147 324L478 193V66L32 251V397L478 582Z" />
<glyph unicode="=" glyph-name="equal" horiz-adv-x="511" d="M32 492H478V378H32V492ZM32 276H478V162H32V276Z" />
<glyph unicode="&gt;" glyph-name="greater" horiz-adv-x="511" d="M33 74V201L364 332L33 463V590L479 405V259L33 74Z" />
<glyph unicode="?" glyph-name="question" horiz-adv-x="474" d="M23 582T84 643T252 704Q353 704 411 658T469 529Q469 476 445 441T375 366Q335 330 316 304T297 240H164Q164 280 175 310T203 359T246 404Q275 431 289 451T303 500Q303 561 235 561Q160 561
159 472L22 473Q23 582 84 643ZM265 165T289 141T313 79Q313 41 289 17T227 -8Q190 -8 166 16T142 79Q142 117 165 141T227 165Q265 165 289 141Z" />
<glyph unicode="@" glyph-name="at" horiz-adv-x="912" d="M672 110T709 110Q730 110 749 130T779 188T791 271Q791 367 752 443T638 564T462 609Q370 609 292 563T168 439T122 268Q122 176 165 102T283 -14T450 -56Q496 -56 547 -41T638 5L684 -75Q641 -108 575
-128T450 -149Q330 -149 233 -95T79 55T23 268Q23 388 81 486T240 642T462 700Q583 700 680 645T833 493T889 274Q889 201 865 146T796 60T697 29Q650 29 620 48T580 106L578 118Q550 78 512 59T429 39Q373 39 323 68T242 150T211 270Q211 334 236 388T308 473T415
505Q451 505 480 493T527 465T549 443V494H672V159Q672 110 709 110ZM399 391T373 357T346 275Q346 224 372 188T442 151Q487 151 514 186T541 274Q541 324 514 357T440 391Q399 391 373 357Z" />
<glyph unicode="A" glyph-name="A" horiz-adv-x="773" d="M583 0L535 124H232L183 0H-5L296 701H484L778 0H583ZM287 264H481L385 514L287 264Z" />
<glyph unicode="B" glyph-name="B" horiz-adv-x="716" d="M480 701T538 680T629 618T661 524Q661 469 629 428T540 372Q607 359 645 311T684 195Q684 136 651 92T557 24T414 0H68V701H401Q480 701 538 680ZM429 422T451 440T473 492Q473 524 451 541T391 558H251V422H391Q429
422 451 440ZM439 142T467 162T495 218Q495 251 467 270T391 289H251V142H391Q439 142 467 162Z" />
<glyph unicode="C" glyph-name="C" horiz-adv-x="692" d="M541 506T494 531T401 557Q348 557 305 531T236 458T211 354Q211 297 236 251T304 178T401 151Q444 151 491 173T575 233L682 118Q625 58 547 23T391 -13Q287 -13 203 35T71 166T23 352Q23 454 72 536T206
665T398 712Q476 712 552 680T681 591L575 463Q541 506 494 531Z" />
<glyph unicode="D" glyph-name="D" horiz-adv-x="766" d="M480 701T564 657T696 534T743 351Q743 248 696 168T562 44T363 0H68V701H370Q480 701 564 657ZM428 148T469 173T533 244T556 349Q556 409 532 455T464 526T366 552H251V148H375Q428 148 469 173Z" />
<glyph unicode="E" glyph-name="E" horiz-adv-x="675" d="M68 701H621V555H251V424H585V279L251 278V146H631V0H68V701Z" />
<glyph unicode="F" glyph-name="F" horiz-adv-x="607" d="M68 701H592L591 555H251V399H565V253H251V0H68V701Z" />
<glyph unicode="G" glyph-name="G" horiz-adv-x="743" d="M532 358H690V79Q634 38 553 13T398 -13Q292 -13 207 34T72 165T23 351Q23 453 73 535T212 665T410 712Q488 712 566 684T698 607L594 479Q556 515 507 536T409 557Q353 557 308 530T237 456T211 351Q211
292 237 245T309 170T411 143Q464 143 532 177V358Z" />
<glyph unicode="H" glyph-name="H" horiz-adv-x="785" d="M68 701H251V415H534V701H717V0H534V269H251V0H68V701Z" />
<glyph unicode="I" glyph-name="I" horiz-adv-x="319" d="M68 701H251V0H68V701Z" />
<glyph unicode="J" glyph-name="J" horiz-adv-x="539" d="M483 116T418 54T239 -8Q92 -8 -5 105L79 230Q116 192 155 172T226 151Q260 151 279 172T299 232V550H59V701H483V228Q483 116 418 54Z" />
<glyph unicode="K" glyph-name="K" horiz-adv-x="749" d="M742 0H523L339 272L251 174V0H68V701H251V397L514 701H726L466 412L742 0Z" />
<glyph unicode="L" glyph-name="L" horiz-adv-x="563" d="M68 701H251V156H548V0H68V701Z" />
<glyph unicode="M" glyph-name="M" horiz-adv-x="939" d="M68 701H267L470 291L672 701H871V0H709L708 444L529 70H411L231 444V0H68V701Z" />
<glyph unicode="N" glyph-name="N" horiz-adv-x="786" d="M547 701H717V0H557L239 419V0H68V701H229L548 279L547 701Z" />
<glyph unicode="O" glyph-name="O" horiz-adv-x="804" d="M509 712T595 665T731 536T781 352Q781 249 732 166T596 35T402 -13Q295 -13 209 34T73 165T23 352Q23 454 72 536T208 665T402 712Q509 712 595 665ZM352 557T308 530T237 456T211 351Q211 293 237 246T308
171T404 143Q456 143 499 170T568 245T593 351Q593 408 568 455T500 530T404 557Q352 557 308 530Z" />
<glyph unicode="P" glyph-name="P" horiz-adv-x="680" d="M510 701T584 637T658 455Q658 331 584 263T376 194H251V0H68V701H376Q510 701 584 637ZM423 340T453 368T484 449Q484 500 454 527T367 555H251V340H367Q423 340 453 368Z" />
<glyph unicode="Q" glyph-name="Q" horiz-adv-x="808" d="M816 -89Q776 -125 721 -146T612 -167Q541 -167 482 -126T388 -13Q284 -10 201 38T71 169T23 352Q23 454 72 536T208 665T402 712Q509 712 595 665T731 536T781 352Q781 236 719 146T553 15Q590 -28 632
-28Q656 -28 687 -14T752 24L816 -89ZM211 293T237 246T308 171T404 143Q456 143 499 170T568 245T593 351Q593 408 568 455T500 530T404 557Q352 557 308 530T237 456T211 351Q211 293 237 246Z" />
<glyph unicode="R" glyph-name="R" horiz-adv-x="724" d="M489 0L387 194H383H251V0H68V701H383Q522 701 598 637T675 455Q675 376 643 319T550 229L696 0H489ZM251 340H384Q440 340 470 368T501 449Q501 500 471 527T384 555H251V340Z" />
<glyph unicode="S" glyph-name="S" horiz-adv-x="646" d="M495 523T432 544T325 565Q291 565 272 553T252 516Q252 493 269 478T311 453T385 428Q458 407 505 386T587 322T621 208Q621 138 584 89T483 14T339 -11Q252 -11 166 19T16 103L87 246Q140 199 212 169T341
139Q382 139 405 154T429 198Q429 222 412 238T368 263T293 286Q221 306 174 326T94 388T60 499Q60 564 94 613T192 688T340 715Q416 715 490 694T620 636L551 490Q495 523 432 544Z" />
<glyph unicode="T" glyph-name="T" horiz-adv-x="614" d="M7 701H608V550H398V0H215V550H7V701Z" />
<glyph unicode="U" glyph-name="U" horiz-adv-x="749" d="M239 223T278 183T377 143Q436 143 472 182T509 289V701H692V289Q692 198 654 130T544 24T376 -13Q280 -13 208 24T96 129T56 289V701H239V289Q239 223 278 183Z" />
<glyph unicode="V" glyph-name="V" horiz-adv-x="732" d="M-2 701H195L370 194L546 701H734L460 0H270L-2 701Z" />
<glyph unicode="W" glyph-name="W" horiz-adv-x="1113" d="M927 701H1115L878 0H690L557 477L422 0H234L-2 701H195L333 189L471 701H650L790 189L927 701Z" />
<glyph unicode="X" glyph-name="X" horiz-adv-x="738" d="M20 701H233L364 502L496 701H712L481 366L732 0H513L364 217L218 0H4L253 357L20 701Z" />
<glyph unicode="Y" glyph-name="Y" horiz-adv-x="684" d="M689 701L436 224V0H253V219L-5 701H178L344 400L506 701H689Z" />
<glyph unicode="Z" glyph-name="Z" horiz-adv-x="676" d="M40 701H642V581L272 147H648V0H27V119L397 554H40V701Z" />
<glyph unicode="[" glyph-name="bracketleft" horiz-adv-x="359" d="M66 742H344V608H224V10H344V-124H66V742Z" />
<glyph unicode="\" glyph-name="backslash" horiz-adv-x="355" d="M69 810L393 -110H243L-81 810H69Z" />
<glyph unicode="]" glyph-name="bracketright" horiz-adv-x="359" d="M293 742V-124H15V10H135V608H15V742H293Z" />
<glyph unicode="^" glyph-name="asciicircum" horiz-adv-x="578" d="M547 138H420L289 425L158 138H31L216 524H362L547 138Z" />
<glyph unicode="_" glyph-name="underscore" horiz-adv-x="585" d="M0 -106H585V-204H0V-106Z" />
<glyph unicode="`" glyph-name="grave" horiz-adv-x="360" d="M190 770L296 609L173 599L42 714L190 770Z" />
<glyph unicode="a" glyph-name="a" horiz-adv-x="601" d="M424 548T486 497T549 352V0H374V61Q320 -8 211 -8Q125 -8 76 38T26 161Q26 238 79 281T233 325H374V331Q374 370 348 391T271 412Q237 412 195 401T109 369L60 489Q126 519 186 533T312 548Q424 548 486
497ZM306 113T336 132T374 183V230H268Q193 230 193 174Q193 146 212 130T266 113Q306 113 336 132Z" />
<glyph unicode="b" glyph-name="b" horiz-adv-x="686" d="M485 547T542 513T630 415T662 268Q662 186 632 124T545 28T414 -6Q363 -6 322 13T251 70V0H73V742H251V471Q310 547 410 547Q485 547 542 513ZM418 138T450 175T483 272Q483 332 451 369T366 407Q315
407 283 370T251 272Q251 212 283 175T366 138Q418 138 450 175Z" />
<glyph unicode="c" glyph-name="c" horiz-adv-x="562" d="M379 400T311 400Q263 400 233 364T203 269Q203 210 233 174T311 138Q385 138 417 199L548 124Q516 62 452 28T302 -6Q219 -6 156 28T59 124T24 268Q24 351 59 414T157 512T304 547Q385 547 448 514T546
419L417 344Q379 400 311 400Z" />
<glyph unicode="d" glyph-name="d" horiz-adv-x="687" d="M614 742V0H436V70Q408 32 368 13T276 -7Q201 -7 144 28T56 126T24 273Q24 355 55 417T142 513T272 547Q324 547 365 527T436 470V742H614ZM372 133T404 170T436 268Q436 329 404 366T320 403Q268 403
236 366T203 268Q203 208 235 171T320 133Q372 133 404 170Z" />
<glyph unicode="e" glyph-name="e" horiz-adv-x="603" d="M438 547T509 469T580 255Q580 234 579 223H203Q216 177 248 153T326 128Q361 128 393 142T453 183L546 90Q504 43 445 19T310 -6Q223 -6 158 28T59 124T24 268Q24 351 59 414T158 512T306 547Q438 547
509 469ZM407 318Q407 365 380 393T307 422Q265 422 237 394T199 318H407Z" />
<glyph unicode="f" glyph-name="f" horiz-adv-x="396" d="M311 608T294 593T277 550V515H397V397H277V0H100V397H27V515H100V565Q100 651 157 700T305 750Q364 750 421 729L398 594Q358 608 338 608Q311 608 294 593Z" />
<glyph unicode="g" glyph-name="g" horiz-adv-x="648" d="M586 541V48Q586 -27 549 -83T446 -170T292 -201Q224 -201 161 -182T50 -131L112 -8Q149 -33 192 -47T279 -61Q339 -61 374 -33T409 43V101Q355 30 255 30Q188 30 136 62T54 154T24 291Q24 367 52 425T133
515T251 547Q301 547 341 529T409 475V541H586ZM349 160T379 195T409 286Q409 343 379 378T300 413Q251 413 221 378T190 286Q190 230 220 195T300 160Q349 160 379 195Z" />
<glyph unicode="h" glyph-name="h" horiz-adv-x="679" d="M520 548T573 492T627 341V0H449V290Q449 336 425 362T357 389Q308 388 280 355T251 267V0H73V742H251V453Q280 500 325 524T430 548Q520 548 573 492Z" />
<glyph unicode="i" glyph-name="i" horiz-adv-x="313" d="M68 541H245V0H68V541ZM196 790T222 764T249 695Q249 654 223 627T155 600Q114 600 88 627T61 695Q61 737 87 763T155 790Q196 790 222 764Z" />
<glyph unicode="j" glyph-name="j" horiz-adv-x="312" d="M-2 -60T16 -60Q42 -60 56 -43T70 7V541H248V-20Q248 -104 197 -152T57 -201Q-6 -201 -63 -180L-28 -53Q-2 -60 16 -60ZM197 790T223 764T250 695Q250 654 224 627T156 600Q115 600 89 627T62 695Q62 737
88 763T156 790Q197 790 223 764Z" />
<glyph unicode="k" glyph-name="k" horiz-adv-x="633" d="M420 0L306 204L251 147V0H73V742H251V358L424 541H626L428 332L630 0H420Z" />
<glyph unicode="l" glyph-name="l" horiz-adv-x="324" d="M73 742H251V0H73V742Z" />
<glyph unicode="m" glyph-name="m" horiz-adv-x="1037" d="M878 548T931 492T984 341V0H806V290Q806 336 782 362T717 389Q670 388 643 355T615 267V0H437V290Q437 336 413 362T348 389Q301 388 273 355T245 267V0H68V541H245V452Q273 499 317 523T421 548Q487
548 534 516T601 427Q627 487 675 517T790 548Q878 548 931 492Z" />
<glyph unicode="n" glyph-name="n" horiz-adv-x="674" d="M514 548T567 492T621 341V0H444V290Q444 336 419 362T352 389Q308 388 280 360T246 286V0H68V541H246V453Q275 500 320 524T425 548Q514 548 567 492Z" />
<glyph unicode="o" glyph-name="o" horiz-adv-x="638" d="M407 547T474 513T578 416T615 271Q615 188 578 126T474 29T319 -6Q231 -6 164 28T61 125T24 271Q24 353 60 415T164 512T319 547Q407 547 474 513ZM267 403T235 366T203 269Q203 208 235 171T319 134Q372
134 404 171T436 269Q436 329 404 366T319 403Q267 403 235 366Z" />
<glyph unicode="p" glyph-name="p" horiz-adv-x="686" d="M485 547T542 513T630 415T662 268Q662 186 632 124T545 28T414 -6Q363 -6 322 13T251 70V-194H73V541H251V471Q310 547 410 547Q485 547 542 513ZM418 138T450 175T483 272Q483 332 451 369T366 407Q315
407 283 370T251 272Q251 212 283 175T366 138Q418 138 450 175Z" />
<glyph unicode="q" glyph-name="q" horiz-adv-x="687" d="M614 541V-194H436V70Q408 32 368 13T276 -7Q201 -7 144 28T56 126T24 273Q24 355 55 417T142 513T272 547Q324 547 365 527T436 470V541H614ZM372 133T404 170T436 268Q436 329 404 366T320 403Q268 403
236 366T203 268Q203 208 235 171T320 133Q372 133 404 170Z" />
<glyph unicode="r" glyph-name="r" horiz-adv-x="430" d="M274 498T318 523T420 548V385Q411 386 393 386Q330 386 291 357T246 276V0H68V541H246V451Q274 498 318 523Z" />
<glyph unicode="s" glyph-name="s" horiz-adv-x="517" d="M324 425T257 425Q234 425 220 417T206 391Q206 373 228 362T298 338Q356 321 394 305T461 255T489 167Q489 85 426 39T260 -8Q191 -8 128 11T16 69L72 184Q118 152 168 135T264 117Q290 117 305 125T321
150Q321 170 299 181T228 205Q171 222 134 238T70 288T42 374Q42 456 104 502T264 549Q323 549 380 533T489 486L429 370Q324 425 257 425Z" />
<glyph unicode="t" glyph-name="t" horiz-adv-x="437" d="M420 28Q390 11 351 2T272 -8Q192 -8 143 38T93 165V397H18V515H93V665H270V515H410V397H270V193Q270 136 317 136Q346 136 386 154L420 28Z" />
<glyph unicode="u" glyph-name="u" horiz-adv-x="664" d="M596 541V0H418V88Q363 -6 245 -8Q157 -8 105 48T52 199V541H230V250Q230 204 253 178T317 152Q364 153 391 186T418 274V541H596Z" />
<glyph unicode="v" glyph-name="v" horiz-adv-x="575" d="M-5 541H178L291 165L405 541H583L380 0H197L-5 541Z" />
<glyph unicode="w" glyph-name="w" horiz-adv-x="941" d="M-5 541H176L284 175L390 541H560L667 175L775 541H949L751 0H575L472 334L368 0H192L-5 541Z" />
<glyph unicode="x" glyph-name="x" horiz-adv-x="611" d="M15 541H219L306 389L400 541H595L424 277L607 0H402L306 165L199 0H3L187 277L15 541Z" />
<glyph unicode="y" glyph-name="y" horiz-adv-x="584" d="M329 -129T277 -165T148 -202Q103 -202 64 -189T-12 -146L62 -23Q81 -39 98 -46T134 -53Q178 -53 199 -12L212 13L-12 541H171L300 189L415 541H592L360 -53Q329 -129 277 -165Z" />
<glyph unicode="z" glyph-name="z" horiz-adv-x="555" d="M43 541L517 540V432L257 136H527V0H34V108L294 404H43V541Z" />
<glyph unicode="{" glyph-name="braceleft" horiz-adv-x="363" d="M258 375T236 350T156 309Q213 293 235 268T258 186V72Q258 36 276 22T345 8V-126H277Q211 -126 173 -113T117 -68T100 16V198Q100 221 92 230T63 240H24V378H63Q83 378 91 387T100 420V601Q100
655 117 686T172 730T277 744H345V610Q295 610 277 596T258 546V431Q258 375 236 350Z" />
<glyph unicode="|" glyph-name="bar" horiz-adv-x="302" d="M85 802H217V-109H85V802Z" />
<glyph unicode="}" glyph-name="braceright" horiz-adv-x="363" d="M339 378V240H300Q280 240 272 231T263 198V16Q263 -37 246 -68T191 -112T86 -126H18V8Q68 8 86 22T105 72V186Q105 243 127 268T207 309Q150 325 128 350T105 431V546Q105 581 87 595T18 610V744H86Q152
744 190 731T246 686T263 601V420Q263 397 271 388T300 378H339Z" />
<glyph unicode="~" glyph-name="asciitilde" horiz-adv-x="511" d="M456 321T428 278T342 235Q315 235 294 243T249 267Q220 285 206 285Q175 285 175 240H55Q55 328 83 371T170 415Q196 415 217 407T262 383Q265 381 274 376T292 368T306 365Q337 365 337 410H456Q456
321 428 278Z" />
<glyph unicode="&#xa0;" glyph-name="uni00A0" horiz-adv-x="222" />
<glyph unicode="&#xa1;" glyph-name="exclamdown" horiz-adv-x="258" d="M101 375T77 399T53 461Q53 499 77 523T139 548Q176 548 200 524T224 461Q224 423 201 399T139 375Q101 375 77 399ZM220 -157H51V22L82 297H189L220 22V-157Z" />
<glyph unicode="&#xa2;" glyph-name="cent" horiz-adv-x="600" d="M523 76T479 45T375 1V-155H243V-1Q142 16 83 88T24 268Q24 378 83 451T243 542V701H375V540Q431 528 475 497T546 419L417 344Q379 400 311 400Q263 400 233 364T203 269Q203 210 233 174T311
138Q385 138 417 199L548 124Q523 76 479 45Z" />
<glyph unicode="&#xa3;" glyph-name="sterling" horiz-adv-x="564" d="M287 140H543V0H27V140H103V311H27V377H103V472Q103 585 165 647T343 709Q404 709 460 687T557 623L489 487Q423 553 363 553Q287 553 287 468V377H453V311H287V140Z" />
<glyph unicode="&#xa4;" glyph-name="currency" horiz-adv-x="701" d="M611 252T576 192L677 91L578 -10L473 94Q415 64 350 64Q284 64 228 95L123 -10L24 91L125 192Q90 252 90 321Q90 387 122 446L24 544L123 645L222 546Q281 580 350 580Q420 580 479 546L578
645L677 544L579 446Q611 387 611 321Q611 252 576 192ZM400 206T436 239T472 321Q472 370 436 404T350 439Q300 439 265 405T229 321Q229 273 264 240T350 206Q400 206 436 239Z" />
<glyph unicode="&#xa5;" glyph-name="yen" horiz-adv-x="694" d="M694 701L495 326H630V260H460L441 224V209H630V143H441V0H258V143H67V209H258V219L236 260H67V326H201L0 701H183L349 400L511 701H694Z" />
<glyph unicode="&#xa6;" glyph-name="brokenbar" horiz-adv-x="302" d="M85 802H217V460H85V802ZM85 233H217V-109H85V233Z" />
<glyph unicode="&#xa7;" glyph-name="section" horiz-adv-x="549" d="M351 575T286 575Q257 575 241 566T225 540Q225 519 250 506T329 477Q389 458 428 441T496 390T525 307Q525 264 498 229T426 173Q460 153 475 132T490 74Q490 27 462 -10T383 -67T263 -88Q196
-88 132 -69T16 -11L66 101Q116 68 165 51T258 33Q290 33 307 43T325 69Q325 89 301 101T224 130Q165 149 126 166T59 216T31 299Q31 345 58 379T135 432Q95 453 80 476T65 532Q65 579 92 616T168 673T284 694Q398 694 510 632L457 521Q351 575 286 575ZM226 349T208
339T190 311Q190 288 218 274T289 259Q324 259 342 269T361 298Q361 320 332 334T260 349Q226 349 208 339Z" />
<glyph unicode="&#xa8;" glyph-name="dieresis" horiz-adv-x="426" d="M157 766T178 744T200 688Q200 655 179 634T124 612Q91 612 70 633T48 688Q48 722 69 744T124 766Q157 766 178 744ZM349 766T370 744T392 688Q392 655 371 634T316 612Q282 612 261 633T240
688Q240 723 261 744T316 766Q349 766 370 744Z" />
<glyph unicode="&#xa9;" glyph-name="copyright" horiz-adv-x="723" d="M455 689T532 644T655 520T700 350Q700 259 655 181T532 56T360 9Q267 9 190 55T68 179T23 348Q23 439 68 517T190 642T362 689Q455 689 532 644ZM290 606T232 571T139 477T105 348Q105 278
138 220T230 127T360 92Q432 92 491 127T584 221T619 350Q619 420 585 478T492 571T362 606Q290 606 232 571ZM434 419T413 430T370 442Q332 442 306 416T280 351Q280 311 306 285T370 258Q390 258 412 268T451 296L500 242Q474 214 438 198T365 182Q317 182 278
203T216 263T193 349Q193 396 216 433T279 492T368 514Q404 514 440 499T500 458L451 399Q434 419 413 430Z" />
<glyph unicode="&#xaa;" glyph-name="ordfeminine" horiz-adv-x="394" d="M276 787T316 756T357 668V458H238V498Q204 453 134 453Q81 453 51 480T20 554Q20 600 54 625T152 651H237V654Q237 698 176 698Q132 698 70 674L42 754Q133 787 204 787Q276 787 316 756ZM217
529T237 561V595H177Q135 595 135 563Q135 547 145 538T175 529Q217 529 237 561Z" />
<glyph unicode="&#xab;" glyph-name="guillemotleft" horiz-adv-x="506" d="M121 452H265L158 267L265 81H121L0 267L121 452ZM346 452H490L383 267L490 81H346L225 267L346 452Z" />
<glyph unicode="&#xac;" glyph-name="logicalnot" horiz-adv-x="580" d="M517 430V136H389V316H32V430H517Z" />
<glyph unicode="&#xad;" glyph-name="uni00AD" horiz-adv-x="375" d="M55 364H320V250H55V364Z" />
<glyph unicode="&#xae;" glyph-name="registered" horiz-adv-x="723" d="M455 689T532 644T655 520T700 350Q700 259 655 181T532 56T360 9Q267 9 190 55T68 179T23 348Q23 439 68 517T190 642T362 689Q455 689 532 644ZM432 92T491 127T584 221T619 350Q619 420
585 478T492 571T362 606Q290 606 232 571T139 477T105 348Q105 278 138 220T230 127T360 92Q432 92 491 127ZM504 372T490 346T447 306L514 202H421L374 290H371H314V202H233V519H371Q435 519 469 490T504 408Q504 372 490 346ZM314 354H371Q397 354 411 367T426
405Q426 430 412 442T371 455H314V354Z" />
<glyph unicode="&#xaf;" glyph-name="overscore" horiz-adv-x="344" d="M21 744H330V639H21V744Z" />
<glyph unicode="&#xb0;" glyph-name="degree" horiz-adv-x="377" d="M252 818T287 784T322 700Q322 651 287 616T203 581Q154 581 119 616T84 700Q84 749 119 783T203 818Q252 818 287 784ZM182 749T167 735T152 700Q152 680 167 666T203 651Q224 651 238 665T253
700Q253 720 239 734T203 749Q182 749 167 735Z" />
<glyph unicode="&#xb1;" glyph-name="plusminus" horiz-adv-x="511" d="M312 457H478V348H312V188H199V348H32V457H199V618H312V457ZM32 -1V113H478V-1H32Z" />
<glyph unicode="&#xb2;" glyph-name="uni00B2" horiz-adv-x="380" d="M214 630T214 654Q214 668 203 676T173 684Q148 684 117 670T55 630L7 718Q101 783 193 783Q259 783 302 753T345 672Q345 638 323 604T261 531L181 454H355V360H22V437L176 592Q214 630 214 654Z" />
<glyph unicode="&#xb3;" glyph-name="uni00B3" horiz-adv-x="370" d="M292 598T320 569T348 492Q348 431 302 393T178 355Q131 355 86 369T9 408L60 501Q108 446 168 446Q196 446 210 457T225 491Q225 536 167 536H94V600L186 688H31V776H328V707L225 611L245
607Q292 598 320 569Z" />
<glyph unicode="&#xb4;" glyph-name="acute" horiz-adv-x="350" d="M162 770L309 714L164 599L42 609L162 770Z" />
<glyph unicode="&#xb5;" glyph-name="uni00B5" horiz-adv-x="685" d="M617 541V0H439V88Q384 -6 266 -8H251V-194H73V541H251V250Q251 204 274 178T338 152Q385 153 412 186T439 274V541H617Z" />
<glyph unicode="&#xb6;" glyph-name="paragraph" horiz-adv-x="653" d="M197 320Q122 320 77 352T13 432T-6 527Q-6 585 19 633T99 712T238 742H585V-107H453V640H355V-107H223V320H197Z" />
<glyph unicode="&#xb7;" glyph-name="middot" horiz-adv-x="235" d="M157 386T183 360T210 291Q210 250 184 223T116 196Q75 196 49 223T22 291Q22 333 48 359T116 386Q157 386 183 360Z" />
<glyph unicode="&#xb8;" glyph-name="cedilla" horiz-adv-x="321" d="M235 0L215 -56Q257 -65 277 -86T297 -137Q297 -185 261 -209T169 -234Q114 -234 59 -214L87 -134Q109 -143 138 -143Q156 -143 167 -137T178 -121Q178 -110 163 -104T125 -98H101L136 9L235 0Z" />
<glyph unicode="&#xb9;" glyph-name="uni00B9" horiz-adv-x="261" d="M2 778H206V360H81V680H2V778Z" />
<glyph unicode="&#xba;" glyph-name="ordmasculine" horiz-adv-x="414" d="M292 786T343 741T394 620Q394 545 343 500T206 454Q122 454 71 499T20 620Q20 696 71 741T206 786Q292 786 343 741ZM177 692T160 672T142 618Q142 586 159 566T206 546Q235 546 253
566T271 618Q271 652 253 672T206 692Q177 692 160 672Z" />
<glyph unicode="&#xbb;" glyph-name="guillemotright" horiz-adv-x="511" d="M160 82H16L123 267L16 453H160L281 267L160 82ZM385 82H241L348 267L241 453H385L506 267L385 82Z" />
<glyph unicode="&#xbc;" glyph-name="onequarter" horiz-adv-x="844" d="M2 701H206V283H81V603H2V701ZM575 701H698L200 0H76L575 701ZM596 418H716L590 174H669V260H786V174H844V86H786V0H669V86H463V167L596 418Z" />
<glyph unicode="&#xbd;" glyph-name="onehalf" horiz-adv-x="885" d="M2 701H206V283H81V603H2V701ZM575 701H698L200 0H76L575 701ZM718 270T718 294Q718 308 707 316T677 324Q652 324 621 310T559 270L511 358Q605 423 697 423Q763 423 806 393T849 312Q849
278 827 244T765 171L685 94H859V0H526V77L680 232Q718 270 718 294Z" />
<glyph unicode="&#xbe;" glyph-name="threequarters" horiz-adv-x="922" d="M292 522T320 493T348 416Q348 355 302 317T178 279Q131 279 86 293T9 332L60 425Q108 370 168 370Q196 370 210 381T225 415Q225 460 167 460H94V524L186 612H31V700H328V631L225 535L245
531Q292 522 320 493ZM653 701H776L278 0H154L653 701ZM674 418H794L668 174H747V260H864V174H922V86H864V0H747V86H541V167L674 418Z" />
<glyph unicode="&#xbf;" glyph-name="questiondown" horiz-adv-x="474" d="M209 375T185 399T161 461Q161 499 185 523T247 548Q284 548 308 524T332 461Q332 423 309 399T247 375Q209 375 185 399ZM451 -42T391 -103T222 -164Q121 -164 63 -118T5 11Q5 64 29
99T99 174Q139 210 158 236T177 300H310Q310 260 299 230T271 181T228 136Q199 109 185 89T171 40Q171 -21 239 -21Q314 -21 315 68L452 67Q451 -42 391 -103Z" />
<glyph unicode="&#xc0;" glyph-name="Agrave" horiz-adv-x="773" d="M583 0L535 124H232L183 0H-5L296 701H484L778 0H583ZM287 264H481L385 514L287 264ZM363 922L469 761L346 751L215 866L363 922Z" />
<glyph unicode="&#xc1;" glyph-name="Aacute" horiz-adv-x="773" d="M583 0L535 124H232L183 0H-5L296 701H484L778 0H583ZM287 264H481L385 514L287 264ZM417 922L564 866L419 751L297 761L417 922Z" />
<glyph unicode="&#xc2;" glyph-name="Acircumflex" horiz-adv-x="773" d="M583 0L535 124H232L183 0H-5L296 701H484L778 0H583ZM287 264H481L385 514L287 264ZM575 757H447L388 824L328 757H200L309 910H466L575 757Z" />
<glyph unicode="&#xc3;" glyph-name="Atilde" horiz-adv-x="773" d="M583 0L535 124H232L183 0H-5L296 701H484L778 0H583ZM287 264H481L385 514L287 264ZM571 834T548 794T474 754Q450 754 430 761T383 783Q355 799 341 799Q313 799 313 757H212Q212 835 235
875T310 916Q333 916 354 908T400 887Q430 871 442 871Q471 871 471 912H571Q571 834 548 794Z" />
<glyph unicode="&#xc4;" glyph-name="Adieresis" horiz-adv-x="773" d="M583 0L535 124H232L183 0H-5L296 701H484L778 0H583ZM287 264H481L385 514L287 264ZM325 909T346 888T368 832Q368 799 347 777T292 755Q258 755 237 777T215 832Q215 866 236 887T292 909Q325
909 346 888ZM517 909T538 888T560 832Q560 799 539 777T484 755Q450 755 429 777T407 832Q407 866 428 887T484 909Q517 909 538 888Z" />
<glyph unicode="&#xc5;" glyph-name="Aring" horiz-adv-x="773" d="M583 0L535 124H232L183 0H-5L296 701H484L778 0H583ZM287 264H481L385 514L287 264ZM436 975T470 941T505 857Q505 808 471 774T387 739Q338 739 304 773T269 857Q269 906 303 940T387 975Q436
975 470 941ZM368 901T355 888T342 857Q342 839 355 827T387 814Q406 814 419 826T432 857Q432 875 419 888T387 901Q368 901 355 888Z" />
<glyph unicode="&#xc6;" glyph-name="AE" horiz-adv-x="1106" d="M682 146H1062V0H499V144H261L185 0H-5L392 701H1052V555H682V424H1016V279H682V146ZM331 278H499V558H479L331 278Z" />
<glyph unicode="&#xc7;" glyph-name="Ccedilla" horiz-adv-x="692" d="M633 66T566 32T428 -11L412 -56Q454 -65 474 -86T494 -137Q494 -185 458 -209T366 -234Q311 -234 256 -214L284 -134Q307 -143 335 -143Q353 -143 364 -137T375 -121Q375 -110 360 -104T322
-98H298L327 -8Q239 6 170 56T62 183T23 352Q23 454 72 536T206 665T398 712Q476 712 552 680T681 591L575 463Q541 506 494 531T401 557Q348 557 305 531T236 458T211 354Q211 297 236 251T304 178T401 151Q444 151 491 173T575 233L682 118Q633 66 566 32Z" />
<glyph unicode="&#xc8;" glyph-name="Egrave" horiz-adv-x="675" d="M68 701H621V555H251V424H585V279L251 278V146H631V0H68V701ZM325 922L431 761L308 751L177 866L325 922Z" />
<glyph unicode="&#xc9;" glyph-name="Eacute" horiz-adv-x="675" d="M68 701H621V555H251V424H585V279L251 278V146H631V0H68V701ZM379 922L526 866L381 751L259 761L379 922Z" />
<glyph unicode="&#xca;" glyph-name="Ecircumflex" horiz-adv-x="675" d="M68 701H621V555H251V424H585V279L251 278V146H631V0H68V701ZM537 757H409L350 824L290 757H162L271 910H428L537 757Z" />
<glyph unicode="&#xcb;" glyph-name="Edieresis" horiz-adv-x="675" d="M68 701H621V555H251V424H585V279L251 278V146H631V0H68V701ZM287 909T308 888T330 832Q330 799 309 777T254 755Q220 755 199 777T177 832Q177 866 198 887T254 909Q287 909 308 888ZM479
909T500 888T522 832Q522 799 501 777T446 755Q412 755 391 777T369 832Q369 866 390 887T446 909Q479 909 500 888Z" />
<glyph unicode="&#xcc;" glyph-name="Igrave" horiz-adv-x="319" d="M68 701H251V0H68V701ZM136 922L242 761L119 751L-12 866L136 922Z" />
<glyph unicode="&#xcd;" glyph-name="Iacute" horiz-adv-x="319" d="M68 701H251V0H68V701ZM190 922L337 866L192 751L70 761L190 922Z" />
<glyph unicode="&#xce;" glyph-name="Icircumflex" horiz-adv-x="319" d="M68 701H251V0H68V701ZM348 757H220L161 824L101 757H-27L82 910H239L348 757Z" />
<glyph unicode="&#xcf;" glyph-name="Idieresis" horiz-adv-x="319" d="M68 701H251V0H68V701ZM98 909T119 888T141 832Q141 799 120 777T65 755Q31 755 10 777T-12 832Q-12 866 9 887T65 909Q98 909 119 888ZM290 909T311 888T333 832Q333 799 312 777T257 755Q223
755 202 777T180 832Q180 866 201 887T257 909Q290 909 311 888Z" />
<glyph unicode="&#xd0;" glyph-name="Eth" horiz-adv-x="766" d="M480 701T564 657T696 534T743 351Q743 248 696 168T562 44T363 0H68V308H2V393H68V701H370Q480 701 564 657ZM428 148T469 173T533 244T556 349Q556 409 532 455T464 526T366 552H251V393H412V308H251V148H375Q428
148 469 173Z" />
<glyph unicode="&#xd1;" glyph-name="Ntilde" horiz-adv-x="786" d="M547 701H717V0H557L239 419V0H68V701H229L548 279L547 701ZM581 834T558 794T484 754Q460 754 440 761T393 783Q365 799 351 799Q323 799 323 757H222Q222 835 245 875T320 916Q343 916 364
908T410 887Q440 871 452 871Q481 871 481 912H581Q581 834 558 794Z" />
<glyph unicode="&#xd2;" glyph-name="Ograve" horiz-adv-x="804" d="M509 712T595 665T731 536T781 352Q781 249 732 166T596 35T402 -13Q295 -13 209 34T73 165T23 352Q23 454 72 536T208 665T402 712Q509 712 595 665ZM352 557T308 530T237 456T211 351Q211
293 237 246T308 171T404 143Q456 143 499 170T568 245T593 351Q593 408 568 455T500 530T404 557Q352 557 308 530ZM378 922L484 761L361 751L230 866L378 922Z" />
<glyph unicode="&#xd3;" glyph-name="Oacute" horiz-adv-x="804" d="M509 712T595 665T731 536T781 352Q781 249 732 166T596 35T402 -13Q295 -13 209 34T73 165T23 352Q23 454 72 536T208 665T402 712Q509 712 595 665ZM352 557T308 530T237 456T211 351Q211
293 237 246T308 171T404 143Q456 143 499 170T568 245T593 351Q593 408 568 455T500 530T404 557Q352 557 308 530ZM432 922L579 866L434 751L312 761L432 922Z" />
<glyph unicode="&#xd4;" glyph-name="Ocircumflex" horiz-adv-x="804" d="M509 712T595 665T731 536T781 352Q781 249 732 166T596 35T402 -13Q295 -13 209 34T73 165T23 352Q23 454 72 536T208 665T402 712Q509 712 595 665ZM352 557T308 530T237 456T211 351Q211
293 237 246T308 171T404 143Q456 143 499 170T568 245T593 351Q593 408 568 455T500 530T404 557Q352 557 308 530ZM590 757H462L403 824L343 757H215L324 910H481L590 757Z" />
<glyph unicode="&#xd5;" glyph-name="Otilde" horiz-adv-x="804" d="M509 712T595 665T731 536T781 352Q781 249 732 166T596 35T402 -13Q295 -13 209 34T73 165T23 352Q23 454 72 536T208 665T402 712Q509 712 595 665ZM352 557T308 530T237 456T211 351Q211
293 237 246T308 171T404 143Q456 143 499 170T568 245T593 351Q593 408 568 455T500 530T404 557Q352 557 308 530ZM586 834T563 794T489 754Q465 754 445 761T398 783Q370 799 356 799Q328 799 328 757H227Q227 835 250 875T325 916Q348 916 369 908T415 887Q445
871 457 871Q486 871 486 912H586Q586 834 563 794Z" />
<glyph unicode="&#xd6;" glyph-name="Odieresis" horiz-adv-x="804" d="M509 712T595 665T731 536T781 352Q781 249 732 166T596 35T402 -13Q295 -13 209 34T73 165T23 352Q23 454 72 536T208 665T402 712Q509 712 595 665ZM352 557T308 530T237 456T211 351Q211
293 237 246T308 171T404 143Q456 143 499 170T568 245T593 351Q593 408 568 455T500 530T404 557Q352 557 308 530ZM340 909T361 888T383 832Q383 799 362 777T307 755Q273 755 252 777T230 832Q230 866 251 887T307 909Q340 909 361 888ZM532 909T553 888T575
832Q575 799 554 777T499 755Q465 755 444 777T422 832Q422 866 443 887T499 909Q532 909 553 888Z" />
<glyph unicode="&#xd7;" glyph-name="multiply" horiz-adv-x="511" d="M453 445L336 327L453 210L373 129L256 247L138 129L58 210L175 327L58 445L138 525L256 408L373 525L453 445Z" />
<glyph unicode="&#xd8;" glyph-name="Oslash" horiz-adv-x="804" d="M704 584T742 510T781 348Q781 247 732 166T596 37T402 -10Q322 -10 253 16L209 -55H94L167 63Q99 112 61 186T23 348Q23 449 72 530T208 658T402 704Q478 704 548 679L595 755H711L635 633Q704
584 742 510ZM211 309T224 275T260 213L461 539Q434 548 404 548Q352 548 308 522T237 450T211 348Q211 309 224 275ZM456 145T499 172T567 245T593 348Q593 427 543 485L340 156Q371 145 404 145Q456 145 499 172Z" />
<glyph unicode="&#xd9;" glyph-name="Ugrave" horiz-adv-x="749" d="M239 223T278 183T377 143Q436 143 472 182T509 289V701H692V289Q692 198 654 130T544 24T376 -13Q280 -13 208 24T96 129T56 289V701H239V289Q239 223 278 183ZM351 922L457 761L334 751L203
866L351 922Z" />
<glyph unicode="&#xda;" glyph-name="Uacute" horiz-adv-x="749" d="M239 223T278 183T377 143Q436 143 472 182T509 289V701H692V289Q692 198 654 130T544 24T376 -13Q280 -13 208 24T96 129T56 289V701H239V289Q239 223 278 183ZM405 922L552 866L407 751L285
761L405 922Z" />
<glyph unicode="&#xdb;" glyph-name="Ucircumflex" horiz-adv-x="749" d="M239 223T278 183T377 143Q436 143 472 182T509 289V701H692V289Q692 198 654 130T544 24T376 -13Q280 -13 208 24T96 129T56 289V701H239V289Q239 223 278 183ZM563 757H435L376 824L316
757H188L297 910H454L563 757Z" />
<glyph unicode="&#xdc;" glyph-name="Udieresis" horiz-adv-x="749" d="M239 223T278 183T377 143Q436 143 472 182T509 289V701H692V289Q692 198 654 130T544 24T376 -13Q280 -13 208 24T96 129T56 289V701H239V289Q239 223 278 183ZM313 909T334 888T356 832Q356
799 335 777T280 755Q246 755 225 777T203 832Q203 866 224 887T280 909Q313 909 334 888ZM505 909T526 888T548 832Q548 799 527 777T472 755Q438 755 417 777T395 832Q395 866 416 887T472 909Q505 909 526 888Z" />
<glyph unicode="&#xdd;" glyph-name="Yacute" horiz-adv-x="684" d="M689 701L436 224V0H253V219L-5 701H178L344 400L506 701H689ZM372 922L519 866L374 751L252 761L372 922Z" />
<glyph unicode="&#xde;" glyph-name="Thorn" horiz-adv-x="689" d="M509 609T588 545T667 367Q667 248 589 180T371 111H251V0H68V701H251V609H371Q509 609 588 545ZM419 253T449 281T480 362Q480 412 450 439T363 467H251V253H363Q419 253 449 281Z" />
<glyph unicode="&#xdf;" glyph-name="germandbls" horiz-adv-x="663" d="M56 570T89 628T183 718T328 750Q406 750 465 725T556 655T589 550Q589 498 564 453T495 383Q556 366 593 321T631 214Q631 150 597 102T499 27T352 0H303V128H342Q398 128 428 151T459
216Q459 258 426 280T332 302H313V429Q363 429 390 453T417 523Q417 568 395 591T330 615Q284 615 259 587T234 506V0H56V492Q56 570 89 628Z" />
<glyph unicode="&#xe0;" glyph-name="agrave" horiz-adv-x="601" d="M424 548T486 497T549 352V0H374V61Q320 -8 211 -8Q125 -8 76 38T26 161Q26 238 79 281T233 325H374V331Q374 370 348 391T271 412Q237 412 195 401T109 369L60 489Q126 519 186 533T312 548Q424
548 486 497ZM306 113T336 132T374 183V230H268Q193 230 193 174Q193 146 212 130T266 113Q306 113 336 132ZM275 770L381 609L258 599L127 714L275 770Z" />
<glyph unicode="&#xe1;" glyph-name="aacute" horiz-adv-x="601" d="M424 548T486 497T549 352V0H374V61Q320 -8 211 -8Q125 -8 76 38T26 161Q26 238 79 281T233 325H374V331Q374 370 348 391T271 412Q237 412 195 401T109 369L60 489Q126 519 186 533T312 548Q424
548 486 497ZM306 113T336 132T374 183V230H268Q193 230 193 174Q193 146 212 130T266 113Q306 113 336 132ZM330 770L477 714L332 599L210 609L330 770Z" />
<glyph unicode="&#xe2;" glyph-name="acircumflex" horiz-adv-x="601" d="M424 548T486 497T549 352V0H374V61Q320 -8 211 -8Q125 -8 76 38T26 161Q26 238 79 281T233 325H374V331Q374 370 348 391T271 412Q237 412 195 401T109 369L60 489Q126 519 186 533T312
548Q424 548 486 497ZM306 113T336 132T374 183V230H268Q193 230 193 174Q193 146 212 130T266 113Q306 113 336 132ZM487 610H359L300 677L240 610H112L221 763H378L487 610Z" />
<glyph unicode="&#xe3;" glyph-name="atilde" horiz-adv-x="601" d="M424 548T486 497T549 352V0H374V61Q320 -8 211 -8Q125 -8 76 38T26 161Q26 238 79 281T233 325H374V331Q374 370 348 391T271 412Q237 412 195 401T109 369L60 489Q126 519 186 533T312 548Q424
548 486 497ZM306 113T336 132T374 183V230H268Q193 230 193 174Q193 146 212 130T266 113Q306 113 336 132ZM484 678T461 638T387 598Q363 598 343 605T296 627Q268 643 254 643Q226 643 226 601H125Q125 679 148 719T223 760Q246 760 267 752T313 731Q343 715
355 715Q384 715 384 756H484Q484 678 461 638Z" />
<glyph unicode="&#xe4;" glyph-name="adieresis" horiz-adv-x="601" d="M424 548T486 497T549 352V0H374V61Q320 -8 211 -8Q125 -8 76 38T26 161Q26 238 79 281T233 325H374V331Q374 370 348 391T271 412Q237 412 195 401T109 369L60 489Q126 519 186 533T312
548Q424 548 486 497ZM306 113T336 132T374 183V230H268Q193 230 193 174Q193 146 212 130T266 113Q306 113 336 132ZM237 766T258 744T280 688Q280 655 259 634T204 612Q171 612 150 633T128 688Q128 722 149 744T204 766Q237 766 258 744ZM429 766T450 744T472
688Q472 655 451 634T396 612Q362 612 341 633T320 688Q320 723 341 744T396 766Q429 766 450 744Z" />
<glyph unicode="&#xe5;" glyph-name="aring" horiz-adv-x="601" d="M424 548T486 497T549 352V0H374V61Q320 -8 211 -8Q125 -8 76 38T26 161Q26 238 79 281T233 325H374V331Q374 370 348 391T271 412Q237 412 195 401T109 369L60 489Q126 519 186 533T312 548Q424
548 486 497ZM306 113T336 132T374 183V230H268Q193 230 193 174Q193 146 212 130T266 113Q306 113 336 132ZM349 815T383 781T418 697Q418 648 384 614T300 579Q251 579 217 613T182 697Q182 746 216 780T300 815Q349 815 383 781ZM281 741T268 728T255 697Q255
679 268 667T300 654Q319 654 332 666T345 697Q345 715 332 728T300 741Q281 741 268 728Z" />
<glyph unicode="&#xe6;" glyph-name="ae" horiz-adv-x="965" d="M564 181T599 155T682 128Q717 128 750 142T810 183L903 90Q861 43 801 19T666 -6Q590 -6 533 22T444 105Q412 50 356 21T223 -9Q132 -9 79 37T26 159Q26 236 79 276T234 319H376V338Q374 374 347
393T272 412Q236 412 192 401T101 369L60 490Q194 548 313 548Q432 548 493 489Q559 547 662 547Q751 547 816 508T913 398T942 231H558L559 221Q564 181 599 155ZM764 364T736 394T663 425Q620 425 592 396T555 317H764Q764 364 736 394ZM233 233T213 218T193
174Q193 144 213 127T267 109Q303 109 331 125T377 173L376 233H271Q233 233 213 218Z" />
<glyph unicode="&#xe7;" glyph-name="ccedilla" horiz-adv-x="562" d="M520 70T469 37T347 -3L328 -56Q370 -65 390 -86T410 -137Q410 -185 374 -209T282 -234Q227 -234 172 -214L200 -134Q223 -143 251 -143Q269 -143 280 -137T291 -121Q291 -110 276 -104T238
-98H214L246 -2Q144 15 84 87T24 268Q24 351 59 414T157 512T304 547Q385 547 448 514T546 419L417 344Q379 400 311 400Q263 400 233 364T203 269Q203 210 233 174T311 138Q385 138 417 199L548 124Q520 70 469 37Z" />
<glyph unicode="&#xe8;" glyph-name="egrave" horiz-adv-x="603" d="M438 547T509 469T580 255Q580 234 579 223H203Q216 177 248 153T326 128Q361 128 393 142T453 183L546 90Q504 43 445 19T310 -6Q223 -6 158 28T59 124T24 268Q24 351 59 414T158 512T306 547Q438
547 509 469ZM407 318Q407 365 380 393T307 422Q265 422 237 394T199 318H407ZM276 770L382 609L259 599L128 714L276 770Z" />
<glyph unicode="&#xe9;" glyph-name="eacute" horiz-adv-x="603" d="M438 547T509 469T580 255Q580 234 579 223H203Q216 177 248 153T326 128Q361 128 393 142T453 183L546 90Q504 43 445 19T310 -6Q223 -6 158 28T59 124T24 268Q24 351 59 414T158 512T306 547Q438
547 509 469ZM407 318Q407 365 380 393T307 422Q265 422 237 394T199 318H407ZM331 770L478 714L333 599L211 609L331 770Z" />
<glyph unicode="&#xea;" glyph-name="ecircumflex" horiz-adv-x="603" d="M438 547T509 469T580 255Q580 234 579 223H203Q216 177 248 153T326 128Q361 128 393 142T453 183L546 90Q504 43 445 19T310 -6Q223 -6 158 28T59 124T24 268Q24 351 59 414T158 512T306
547Q438 547 509 469ZM407 318Q407 365 380 393T307 422Q265 422 237 394T199 318H407ZM488 610H360L301 677L241 610H113L222 763H379L488 610Z" />
<glyph unicode="&#xeb;" glyph-name="edieresis" horiz-adv-x="603" d="M438 547T509 469T580 255Q580 234 579 223H203Q216 177 248 153T326 128Q361 128 393 142T453 183L546 90Q504 43 445 19T310 -6Q223 -6 158 28T59 124T24 268Q24 351 59 414T158 512T306
547Q438 547 509 469ZM407 318Q407 365 380 393T307 422Q265 422 237 394T199 318H407ZM238 766T259 744T281 688Q281 655 260 634T205 612Q172 612 151 633T129 688Q129 722 150 744T205 766Q238 766 259 744ZM430 766T451 744T473 688Q473 655 452 634T397 612Q363
612 342 633T321 688Q321 723 342 744T397 766Q430 766 451 744Z" />
<glyph unicode="&#xec;" glyph-name="igrave" horiz-adv-x="313" d="M68 541H245V0H68V541ZM132 770L238 609L115 599L-16 714L132 770Z" />
<glyph unicode="&#xed;" glyph-name="iacute" horiz-adv-x="313" d="M68 541H245V0H68V541ZM187 770L334 714L189 599L67 609L187 770Z" />
<glyph unicode="&#xee;" glyph-name="icircumflex" horiz-adv-x="313" d="M68 541H245V0H68V541ZM344 610H216L157 677L97 610H-31L78 763H235L344 610Z" />
<glyph unicode="&#xef;" glyph-name="idieresis" horiz-adv-x="313" d="M68 541H245V0H68V541ZM99 766T120 745T141 689Q141 655 120 633T65 611Q32 611 11 633T-11 689Q-11 723 10 744T65 766Q99 766 120 745ZM282 766T303 745T325 689Q325 655 304 633T249 611Q215
611 194 633T172 689Q172 723 193 744T249 766Q282 766 303 745Z" />
<glyph unicode="&#xf0;" glyph-name="eth" horiz-adv-x="605" d="M502 550T542 465T582 287Q582 198 545 131T441 28T283 -9Q204 -9 145 20T54 102T21 226Q21 292 49 342T128 419T248 446Q296 446 339 431T407 389Q403 433 375 477T299 561L122 480L89 548L228
612Q167 650 101 676L220 750Q296 721 363 674L504 739L537 669L429 620Q502 550 542 465ZM337 141T364 166T392 233Q392 275 364 300T290 326Q244 326 218 301T191 235Q191 192 218 167T291 141Q337 141 364 166Z" />
<glyph unicode="&#xf1;" glyph-name="ntilde" horiz-adv-x="674" d="M514 548T567 492T621 341V0H444V290Q444 336 419 362T352 389Q308 388 280 360T246 286V0H68V541H246V453Q275 500 320 524T425 548Q514 548 567 492ZM538 678T515 638T441 598Q417 598 397
605T350 627Q322 643 308 643Q280 643 280 601H179Q179 679 202 719T277 760Q300 760 321 752T367 731Q397 715 409 715Q438 715 438 756H538Q538 678 515 638Z" />
<glyph unicode="&#xf2;" glyph-name="ograve" horiz-adv-x="638" d="M407 547T474 513T578 416T615 271Q615 188 578 126T474 29T319 -6Q231 -6 164 28T61 125T24 271Q24 353 60 415T164 512T319 547Q407 547 474 513ZM267 403T235 366T203 269Q203 208 235 171T319
134Q372 134 404 171T436 269Q436 329 404 366T319 403Q267 403 235 366ZM294 770L400 609L277 599L146 714L294 770Z" />
<glyph unicode="&#xf3;" glyph-name="oacute" horiz-adv-x="638" d="M407 547T474 513T578 416T615 271Q615 188 578 126T474 29T319 -6Q231 -6 164 28T61 125T24 271Q24 353 60 415T164 512T319 547Q407 547 474 513ZM267 403T235 366T203 269Q203 208 235 171T319
134Q372 134 404 171T436 269Q436 329 404 366T319 403Q267 403 235 366ZM349 770L496 714L351 599L229 609L349 770Z" />
<glyph unicode="&#xf4;" glyph-name="ocircumflex" horiz-adv-x="638" d="M407 547T474 513T578 416T615 271Q615 188 578 126T474 29T319 -6Q231 -6 164 28T61 125T24 271Q24 353 60 415T164 512T319 547Q407 547 474 513ZM267 403T235 366T203 269Q203 208 235
171T319 134Q372 134 404 171T436 269Q436 329 404 366T319 403Q267 403 235 366ZM506 610H378L319 677L259 610H131L240 763H397L506 610Z" />
<glyph unicode="&#xf5;" glyph-name="otilde" horiz-adv-x="638" d="M407 547T474 513T578 416T615 271Q615 188 578 126T474 29T319 -6Q231 -6 164 28T61 125T24 271Q24 353 60 415T164 512T319 547Q407 547 474 513ZM267 403T235 366T203 269Q203 208 235 171T319
134Q372 134 404 171T436 269Q436 329 404 366T319 403Q267 403 235 366ZM503 678T480 638T406 598Q382 598 362 605T315 627Q287 643 273 643Q245 643 245 601H144Q144 679 167 719T242 760Q265 760 286 752T332 731Q362 715 374 715Q403 715 403 756H503Q503
678 480 638Z" />
<glyph unicode="&#xf6;" glyph-name="odieresis" horiz-adv-x="638" d="M407 547T474 513T578 416T615 271Q615 188 578 126T474 29T319 -6Q231 -6 164 28T61 125T24 271Q24 353 60 415T164 512T319 547Q407 547 474 513ZM267 403T235 366T203 269Q203 208 235
171T319 134Q372 134 404 171T436 269Q436 329 404 366T319 403Q267 403 235 366ZM256 766T277 744T299 688Q299 655 278 634T223 612Q190 612 169 633T147 688Q147 722 168 744T223 766Q256 766 277 744ZM448 766T469 744T491 688Q491 655 470 634T415 612Q381
612 360 633T339 688Q339 723 360 744T415 766Q448 766 469 744Z" />
<glyph unicode="&#xf7;" glyph-name="divide" horiz-adv-x="511" d="M290 589T312 567T334 509Q334 474 312 452T255 429Q220 429 198 451T175 509Q175 544 197 566T255 589Q290 589 312 567ZM32 384H478V270H32V384ZM290 231T312 209T334 151Q334 116 312 94T255
71Q220 71 198 93T175 151Q175 186 197 208T255 231Q290 231 312 209Z" />
<glyph unicode="&#xf8;" glyph-name="oslash" horiz-adv-x="638" d="M561 453T588 397T615 271Q615 188 578 126T474 29T319 -6Q249 -6 191 16L121 -86H36L129 50Q78 86 51 143T24 271Q24 353 60 415T164 512T319 547Q392 547 451 523L521 627H606L512 489Q561
453 588 397ZM191 213T215 177L371 407Q347 418 319 418Q262 418 227 377T191 269Q191 213 215 177ZM376 119T411 160T447 269Q447 322 424 360L268 129Q293 119 319 119Q376 119 411 160Z" />
<glyph unicode="&#xf9;" glyph-name="ugrave" horiz-adv-x="664" d="M596 541V0H418V88Q363 -6 245 -8Q157 -8 105 48T52 199V541H230V250Q230 204 253 178T317 152Q364 153 391 186T418 274V541H596ZM307 770L413 609L290 599L159 714L307 770Z" />
<glyph unicode="&#xfa;" glyph-name="uacute" horiz-adv-x="664" d="M596 541V0H418V88Q363 -6 245 -8Q157 -8 105 48T52 199V541H230V250Q230 204 253 178T317 152Q364 153 391 186T418 274V541H596ZM362 770L509 714L364 599L242 609L362 770Z" />
<glyph unicode="&#xfb;" glyph-name="ucircumflex" horiz-adv-x="664" d="M596 541V0H418V88Q363 -6 245 -8Q157 -8 105 48T52 199V541H230V250Q230 204 253 178T317 152Q364 153 391 186T418 274V541H596ZM519 610H391L332 677L272 610H144L253 763H410L519 610Z" />
<glyph unicode="&#xfc;" glyph-name="udieresis" horiz-adv-x="664" d="M596 541V0H418V88Q363 -6 245 -8Q157 -8 105 48T52 199V541H230V250Q230 204 253 178T317 152Q364 153 391 186T418 274V541H596ZM269 766T290 744T312 688Q312 655 291 634T236 612Q203
612 182 633T160 688Q160 722 181 744T236 766Q269 766 290 744ZM461 766T482 744T504 688Q504 655 483 634T428 612Q394 612 373 633T352 688Q352 723 373 744T428 766Q461 766 482 744Z" />
<glyph unicode="&#xfd;" glyph-name="yacute" horiz-adv-x="584" d="M329 -129T277 -165T148 -202Q103 -202 64 -189T-12 -146L62 -23Q81 -39 98 -46T134 -53Q178 -53 199 -12L212 13L-12 541H171L300 189L415 541H592L360 -53Q329 -129 277 -165ZM323 770L470
714L325 599L203 609L323 770Z" />
<glyph unicode="&#xfe;" glyph-name="thorn" horiz-adv-x="686" d="M278 508T318 527T410 547Q485 547 542 513T630 415T662 268Q662 186 632 124T545 28T414 -6Q362 -6 321 13T251 70V-194H73V742H251V471Q278 508 318 527ZM315 407T283 370T251 272Q251 212
283 175T366 138Q418 138 450 175T483 272Q483 332 451 369T366 407Q315 407 283 370Z" />
<glyph unicode="&#xff;" glyph-name="ydieresis" horiz-adv-x="584" d="M329 -129T277 -165T148 -202Q103 -202 64 -189T-12 -146L62 -23Q81 -39 98 -46T134 -53Q178 -53 199 -12L212 13L-12 541H171L300 189L415 541H592L360 -53Q329 -129 277 -165ZM230 766T251
744T273 688Q273 655 252 634T197 612Q164 612 143 633T121 688Q121 722 142 744T197 766Q230 766 251 744ZM422 766T443 744T465 688Q465 655 444 634T389 612Q355 612 334 633T313 688Q313 723 334 744T389 766Q422 766 443 744Z" />
<glyph unicode="&#x2013;" glyph-name="endash" horiz-adv-x="408" d="M0 364H408V250H0V364Z" />
<glyph unicode="&#x2014;" glyph-name="emdash" horiz-adv-x="645" d="M0 364H645V250H0V364Z" />
<glyph unicode="&#x2018;" glyph-name="quoteleft" horiz-adv-x="243" d="M190 585T190 541Q190 504 166 480T105 456Q69 456 45 478T20 541Q20 571 43 609L123 742H208L156 609Q190 585 190 541Z" />
<glyph unicode="&#x2019;" glyph-name="quoteright" horiz-adv-x="243" d="M159 742T183 720T208 657Q208 627 185 589L105 456H20L72 589Q38 613 38 657Q38 694 62 718T123 742Q159 742 183 720Z" />
<glyph unicode="&#x201a;" glyph-name="quotesinglbase" horiz-adv-x="243" d="M159 164T183 142T208 79Q208 49 185 11L105 -122H20L72 11Q38 35 38 79Q38 116 62 140T123 164Q159 164 183 142Z" />
<glyph unicode="&#x201c;" glyph-name="quotedblleft" horiz-adv-x="432" d="M190 585T190 541Q190 504 166 480T105 456Q69 456 45 478T20 541Q20 571 43 609L123 742H208L156 609Q190 585 190 541ZM378 585T378 541Q378 504 354 480T293 456Q257 456 233 478T208
541Q208 571 231 609L311 742H396L344 609Q378 585 378 541Z" />
<glyph unicode="&#x201d;" glyph-name="quotedblright" horiz-adv-x="432" d="M159 742T183 720T208 657Q208 627 185 589L105 456H20L72 589Q38 613 38 657Q38 694 62 718T123 742Q159 742 183 720ZM347 742T371 720T396 657Q396 627 373 589L293 456H208L260
589Q226 613 226 657Q226 694 250 718T311 742Q347 742 371 720Z" />
<glyph unicode="&#x201e;" glyph-name="quotedblbase" horiz-adv-x="432" d="M159 164T183 142T208 79Q208 49 185 11L105 -122H20L72 11Q38 35 38 79Q38 116 62 140T123 164Q159 164 183 142ZM347 164T371 142T396 79Q396 49 373 11L293 -122H208L260 11Q226
35 226 79Q226 116 250 140T311 164Q347 164 371 142Z" />
<glyph unicode="&#x2022;" glyph-name="bullet" horiz-adv-x="331" d="M222 407T258 371T294 277Q294 219 258 183T165 146Q109 146 73 182T37 277Q37 334 73 370T165 407Q222 407 258 371Z" />
<glyph unicode="&#x2039;" glyph-name="guilsinglleft" horiz-adv-x="281" d="M121 452H265L158 267L265 81H121L0 267L121 452Z" />
<glyph unicode="&#x203a;" glyph-name="guilsinglright" horiz-adv-x="281" d="M160 82H16L123 267L16 453H160L281 267L160 82Z" />
</font>
</defs>
</svg>
