<svg xmlns="http://www.w3.org/2000/svg"><defs><font id="Montserrat" horiz-adv-x="604"><font-face font-family="Montserrat Medium" panose-1="0 0 6 0 0 0 0 0 0 0" ascent="968" descent="-251" alphabetic="0"/><glyph glyph-name="space" horiz-adv-x="245"/><glyph unicode="!" glyph-name="exclam" horiz-adv-x="222" d="M61 693h125V519l-22-291H83L61 519v174zm92-558l19-20 20-51q0-32-19-52T123-9Q94-9 75 12T55 64q0 31 19 51t49 20q30 0 49-20z"/><glyph unicode="&quot;" glyph-name="quotedbl" horiz-adv-x="383" d="M60 700h100V445H60v255zm164 0h100V445H224v255z"/><glyph unicode="#" glyph-name="numbersign" horiz-adv-x="728" d="M693 429H553l-20-164h137l-10-98H521L500 0h-96l21 167H258L237 0h-96l21 167H24l10 98h140l20 164H57l9 97h140l22 174h95l-21-174h167l22 174h95l-21-174h138l-10-97zM437 265l20 164H290l-20-164h167z"/><glyph unicode="$" glyph-name="dollar" horiz-adv-x="628" d="M212 492l19-19 49-32 81-28q71-21 116-42t78-62 32-108q0-85-59-139T372-5v-140h-99V-6q-70 8-135 37T23 104l56 114q53-49 119-77t123-28q56 0 88 21t32 59q0 30-19 49t-50 32-82 27q-71 21-116 41t-77 60-32 107q0 80 56 133t152 66v130l99 1V709q57-6 111-25t97-47l-54-117q-54 33-110 51t-100 18q-48 0-76-18t-28-50q0-29 19-48z"/><glyph unicode="%" glyph-name="percent" horiz-adv-x="972" d="M308 702l50-55 50-154q0-98-50-154t-138-57q-87 0-137 56T33 493q0 97 50 153t137 56q88 0 138-55zm-136-76l-26-35-27-98q0-64 26-99t75-36q49 0 76 35t27 100q0 63-27 98t-76 35q-48 0-74-35zm516 74h99L277 0H177l511 700zm151-283l50-55 50-154q0-98-50-154T751-3q-87 0-137 56t-50 155q0 97 50 153t137 56q88 0 138-55zm-136-76l-26-35-27-98q0-64 26-99t75-36q49 0 76 35t27 100q0 63-27 98t-76 35q-48 0-74-35z"/><glyph unicode="&amp;" glyph-name="ampersand" horiz-adv-x="669" d="M595-23L489 82Q395-6 281-6q-63 0-114 25T86 90 56 193q0 66 39 110t109 82q-33 46-48 84t-16 76q0 72 51 116t136 45q53 0 95-19t65-53 23-79q0-65-44-107t-124-83q58-64 136-141 33 50 58 122l85-63q-28-73-70-130L662 45l-67-68zM243 496l47-66q56 29 86 57t30 68q0 32-21 51t-57 20q-38 0-61-23t-24-58q0-49 47-115zM355 92l64 59Q317 252 257 320q-45-26-69-53t-24-64q0-49 35-80t87-31q69 0 133 59z"/><glyph unicode="'" glyph-name="quotesingle" horiz-adv-x="219" d="M60 700h100V445H60v255z"/><glyph unicode="(" glyph-name="parenleft" horiz-adv-x="320" d="M252 654l-31-112-32-233q0-121 31-233t88-200H190Q130-38 99 73T67 309q0 124 31 235t92 198h118q-56-88-87-200z"/><glyph unicode=")" glyph-name="parenright" horiz-adv-x="320" d="M130 742q60-86 91-197t32-236q0-124-31-235t-92-198H12Q68-36 99 76t32 233q0 121-31 233T12 742h118z"/><glyph unicode="*" glyph-name="asterisk" horiz-adv-x="356" d="M144 720h68l-1-100 87 51 34-62-90-49 90-49-34-63-88 52 2-100h-68l2 101-88-51-33 61 88 49-88 49 33 63 87-52-1 100z"/><glyph unicode="+" glyph-name="plus" horiz-adv-x="501" d="M467 370v-90H293V108h-85v172H35v90h173v173h85V370h174z"/><glyph unicode="," glyph-name="comma" horiz-adv-x="221" d="M140 133l19-19 20-51q0-15-4-27T161 7L98-114H33L75 5Q45 25 45 63q0 31 19 50t48 20q28 0 47-19z"/><glyph unicode="-" glyph-name="hyphen" horiz-adv-x="370" d="M59 350h251v-90H59v90z"/><glyph unicode="." glyph-name="period" horiz-adv-x="225" d="M142 135l19-20 20-51q0-32-19-52T112-9Q83-9 64 12T44 64q0 31 19 51t49 20q30 0 49-20z"/><glyph unicode="/" glyph-name="slash" horiz-adv-x="337" d="M294 815h110L86-115H-25l319 930z"/><glyph unicode="0" glyph-name="zero" horiz-adv-x="706" d="M499 706l78-92 78-264q0-171-78-263T354-5Q209-5 131 87T53 350q0 172 78 264t223 92q145 0 223-92zM271 600l-40-60-40-190q0-128 40-189t123-61q83 0 123 61t40 189q0 129-40 189t-123 61q-83 0-123-60z"/><glyph unicode="1" glyph-name="one" horiz-adv-x="382" d="M1 700h281V0H148v582H1v118z"/><glyph unicode="2" glyph-name="two" horiz-adv-x="590" d="M556 117V0H38v97l264 272q38 38 61 75t23 64q0 38-30 59t-83 22q-46 0-98-23t-98-64L24 605q62 48 130 74t138 27q69 0 122-22t82-62 30-94q0-51-35-108t-98-123L215 117h341z"/><glyph unicode="3" glyph-name="three" horiz-adv-x="593" d="M433 399l57-50 58-131q0-66-34-116t-97-79T270-6q-71 0-140 21T11 73l53 104q42-35 93-53t104-19q73 0 114 30t42 81q0 52-41 79t-117 28H153v81l188 182H46l-1 114h468v-83L299 412l37-4q97-9 154-59z"/><glyph unicode="4" glyph-name="four" horiz-adv-x="600" d="M568 280V165H467V0H343v165H8v99l228 436h129L151 280h192v162h124V280h101z"/><glyph unicode="5" glyph-name="five" horiz-adv-x="620" d="M395 444l60-27 92-75 33-110q0-71-34-125t-96-83T306-6q-66 0-137 22T42 77l53 105q45-35 96-54t102-20q66 0 104 30t39 84q0 51-38 79t-113 28q-36 0-95-2t-91-6v379h450V583H223V444h93q79 0 139-27z"/><glyph unicode="6" glyph-name="six" horiz-adv-x="633" d="M484 574l-40 11-82 12q-94 0-141-63t-45-172q27 46 73 69t111 24q104 0 165-61t61-163q0-72-31-125t-87-83T336-6q-89 0-154 41T83 153 48 337q0 111 37 194t107 129 162 46q54 0 111-14t101-40l-51-100q-31 22-71 33zM270 352l-38-36-37-89q-1-30 14-57t45-45 76-18q60 0 96 33t36 92q0 55-34 87t-94 33q-64 0-102-36z"/><glyph unicode="7" glyph-name="seven" horiz-adv-x="575" d="M9 700h540V600L261 0H119l279 583H129l-1-99H9v216z"/><glyph unicode="8" glyph-name="eight" horiz-adv-x="632" d="M424 706l63-49 64-135q0-48-26-87t-72-61q62-23 97-70t36-108q0-61-33-107t-94-70T315-6q-82 0-143 24T77 88 44 194q0 62 37 109t102 71q-49 24-76 64t-28 89q0 82 63 130t172 49q110 0 173-49zm-167-96l-32-25-33-70q0-45 32-70t91-25q58 0 90 25t32 70q0 45-32 70t-90 25q-58 0-90-25zm-11-294l-38-28-38-79q0-52 38-81t107-29q68 0 106 28t39 81q0 51-38 79t-108 29q-68 0-106-28z"/><glyph unicode="9" glyph-name="nine" horiz-adv-x="631" d="M144 127l40-11 80-12q94 0 141 62t45 172q-27-45-74-69t-110-24q-103 0-163 61T43 470q0 72 30 125t87 82 131 29q89 0 153-41t99-118 35-183q0-111-37-195T434 40 273-6Q220-6 163 9T61 49l52 99q31-21 71-32zm94 466l-36-33-36-91q0-56 34-88t93-32q64 0 101 35t36 89q1 48-33 84t-100 36q-59 0-95-33z"/><glyph unicode=":" glyph-name="colon" horiz-adv-x="225" d="M142 432l19-20 20-51q0-32-19-52t-50-21q-29 0-48 21t-20 52q0 31 19 51t49 20q30 0 49-20zm0-297l19-20 20-51q0-32-19-52T112-9Q83-9 64 12T44 64q0 31 19 51t49 20q30 0 49-20z"/><glyph unicode=";" glyph-name="semicolon" horiz-adv-x="223" d="M142 432l19-20 20-51q0-32-19-52t-50-21q-29 0-48 21t-20 52q0 31 19 51t49 20q30 0 49-20zm-2-299l19-19 20-51q0-15-4-27T161 7L98-114H33L75 5Q45 25 45 63q0 31 19 50t48 20q28 0 47-19z"/><glyph unicode="&lt;" glyph-name="less" horiz-adv-x="501" d="M467 568V468L121 325l346-143V83L35 268v114l432 186z"/><glyph unicode="=" glyph-name="equal" horiz-adv-x="501" d="M35 476h432v-90H35v90zm0-212h432v-89H35v89z"/><glyph unicode="&gt;" glyph-name="greater" horiz-adv-x="501" d="M34 88v100l346 143L34 474v99l432-185V274L34 88z"/><glyph unicode="?" glyph-name="question" horiz-adv-x="451" d="M24 587l57 55 154 56q94 0 149-44t56-126q0-38-13-67t-31-49-49-47q-41-35-61-63t-21-71H165q0 40 12 70t28 49 46 46q34 31 50 54t16 58q0 39-24 58t-69 20q-46 0-72-24t-28-73H23q1 98 58 153zm219-452l19-20 20-51q0-32-19-52T213-9q-29 0-48 21t-20 52q0 31 19 51t49 20q30 0 49-20z"/><glyph unicode="@" glyph-name="at" horiz-adv-x="958" d="M704 125l11-13 32-13q24 0 44 22t34 61 13 88q0 98-43 177T672 572t-187 46q-100 0-183-47T169 444t-49-177q0-94 46-170T293-23t179-43q47 0 99 15t93 45l43-75q-43-32-109-51t-126-20q-124 0-224 54T89 53 31 267q0 121 60 220t165 156 229 58q125 0 226-55t158-153 58-220q0-74-24-130t-68-88-99-31q-47 0-77 20t-39 61l-2 18q-30-43-73-65t-94-22q-60 0-112 29t-83 83-32 121q0 66 27 120t76 86 113 32q39 0 71-13t54-30 27-28v60h112V152q0-27 11-40zM410 403l-32-37-33-92q0-56 33-96t86-40q55 0 87 39t33 96q0 55-33 92t-89 38q-52 0-84-37z"/><glyph unicode="A" glyph-name="A" horiz-adv-x="747" d="M604 0l-62 148H200L138 0H-1l307 700h139L748 0H604zM248 263h246L372 557 248 263z"/><glyph unicode="B" glyph-name="B" horiz-adv-x="709" d="M509 700l64-47 65-128q0-58-32-99t-90-56q70-13 109-60t40-117q0-90-69-141T406 0H86v700h311q112 0 176-47zm-67-286l29 23 30 64q0 40-29 62t-82 21H220V414h170q52 0 81 23zm12-299l36 25 36 70q0 43-36 67t-100 24H220V116h170q64-1 100 24z"/><glyph unicode="C" glyph-name="C" horiz-adv-x="696" d="M556 541l-50 24-103 24q-65 0-119-31t-85-85-31-120q0-65 31-119t85-86 119-32q50 0 100 22t90 61l79-88q-55-56-128-88T396-10q-101 0-185 48T79 168 31 351q0 100 49 182t133 129 188 47q75 0 147-30t123-83l-78-98q-37 43-87 67z"/><glyph unicode="D" glyph-name="D" horiz-adv-x="773" d="M482 700l83-44 130-125 47-181q0-101-47-180T563 45 372 0H86v700h291q105 0 188-44zm-38-582l51 29 81 82 29 120q0 67-30 120t-82 83-118 30H220V118h160q64 0 115 29z"/><glyph unicode="E" glyph-name="E" horiz-adv-x="661" d="M86 700h513V583H220V410h340V293H220V117h391V0H86v700z"/><glyph unicode="F" glyph-name="F" horiz-adv-x="583" d="M86 700h483l-1-117H220V394h317V277H220V0H86v700z"/><glyph unicode="G" glyph-name="G" horiz-adv-x="747" d="M561 348h117V82q-55-41-130-66T401-10q-103 0-187 48T80 168 31 351q0 100 50 181t136 129 192 48q75 0 148-27t126-74l-76-99q-40 38-92 59t-106 21q-66 0-121-31t-88-87-32-120q0-66 32-121t88-87 122-32q36 0 75 11t76 33v193z"/><glyph unicode="H" glyph-name="H" horiz-adv-x="790" d="M86 700h134V401h349v299h134V0H569v284H220V0H86v700z"/><glyph unicode="I" glyph-name="I" horiz-adv-x="306" d="M86 700h134V0H86v700z"/><glyph unicode="J" glyph-name="J" horiz-adv-x="509" d="M437 113l-60-59L213-6Q83-6-3 99l63 100q35-37 74-57t75-21q44 0 68 26t25 76v358H61v119h376V220q0-107-60-166z"/><glyph unicode="K" glyph-name="K" horiz-adv-x="726" d="M711 0H550L330 300 220 179V0H86v700h134V351l316 349h158L425 404 711 0z"/><glyph unicode="L" glyph-name="L" horiz-adv-x="541" d="M86 700h134V121h302V0H86v700z"/><glyph unicode="M" glyph-name="M" horiz-adv-x="940" d="M86 700h153l232-451 230 451h153V0H731v502L513 72h-86L208 502V0H86v700z"/><glyph unicode="N" glyph-name="N" horiz-adv-x="790" d="M574 700h130V0H577L217 482V0H86v700h127l361-483v483z"/><glyph unicode="O" glyph-name="O" horiz-adv-x="809" d="M508 709l85-47 135-129 49-182q0-100-49-182T594 38 404-10q-104 0-189 48T80 168 31 351q0 100 49 182t134 129 190 47q104 0 189-47zM342 589l-55-31-87-86-32-121q0-66 32-121t87-87 119-32q63 0 117 32t85 87 32 121q0 66-31 120t-86 86-117 32q-64 0-119-31z"/><glyph unicode="P" glyph-name="P" horiz-adv-x="675" d="M505 700l72-63 73-178q0-120-72-186t-205-67H220V0H86v700h287q132 0 204-63zm-63-376l40 33 41 98q0 64-40 96t-117 32H220V324h146q76 0 116 33z"/><glyph unicode="Q" glyph-name="Q" horiz-adv-x="816" d="M817-80q-40-36-92-56t-102-21q-66 0-123 38T403-10q-104 0-189 48T80 168 31 351q0 100 49 182t134 129 190 47q104 0 189-47t135-129 49-182q0-78-30-146T661 86 534 11q53-56 105-56 54 0 126 56l52-91zM168 285l32-55 87-87 119-32q63 0 117 32t85 87 32 121q0 66-31 120t-86 86-117 32q-64 0-119-31t-87-86-32-121q0-66 32-121z"/><glyph unicode="R" glyph-name="R" horiz-adv-x="723" d="M524 0L403 207q-8-1-25-1H220V0H86v700h292q136 0 210-63t74-178q0-82-35-140t-104-87L677 0H524zM220 324h158q76 0 116 33t40 98q0 64-40 96t-116 32H220V324z"/><glyph unicode="S" glyph-name="S" horiz-adv-x="628" d="M472 553l-56 18-100 18q-48 0-76-18t-28-50q0-29 19-48t49-32 81-28q71-21 116-42t78-62 32-108q0-64-34-111t-95-73T319-8q-82 0-160 30T23 104l56 114q53-49 119-77t123-28q56 0 88 21t32 59q0 30-19 49t-50 32-82 27q-71 21-116 41t-77 60-32 107q0 61 32 106t92 71 138 25q68 0 134-20t119-54l-54-117q-54 33-110 51z"/><glyph unicode="T" glyph-name="T" horiz-adv-x="588" d="M8 700h571V581H361V0H226v581H8v119z"/><glyph unicode="U" glyph-name="U" horiz-adv-x="756" d="M207 205l47-47 126-47q79 0 124 47t46 130v412h134V288q0-91-37-158T542 26 380-10q-94 0-163 36T110 129 73 288v412h134V288q0-83 47-130z"/><glyph unicode="V" glyph-name="V" horiz-adv-x="701" d="M2 700h144l206-551 208 551h138L418 0H279L2 700z"/><glyph unicode="W" glyph-name="W" horiz-adv-x="1076" d="M935 700h139L837 0H698L538 531 375 0H238L2 700h144l165-555 164 555h132l165-557 163 557z"/><glyph unicode="X" glyph-name="X" horiz-adv-x="704" d="M29 700h157l161-230 161 230h159L432 365 687 0H526L347 250 170 0H13l252 359L29 700z"/><glyph unicode="Y" glyph-name="Y" horiz-adv-x="649" d="M649 700L394 229V0H260v224L-1 700h136l191-329 188 329h135z"/><glyph unicode="Z" glyph-name="Z" horiz-adv-x="668" d="M48 700h580v-94L216 117h417V0H35v95l412 488H47l1 117z"/><glyph unicode="[" glyph-name="bracketleft" horiz-adv-x="336" d="M78 742h240V638H195V-20h123v-104H78v866z"/><glyph unicode="\" glyph-name="backslash" horiz-adv-x="337" d="M43 815l319-930H251L-67 815H43z"/><glyph unicode="]" glyph-name="bracketright" horiz-adv-x="336" d="M258 742v-866H18v104h123v658H18v104h240z"/><glyph unicode="^" glyph-name="asciicircum" horiz-adv-x="547" d="M516 134H416L273 447 130 134H31l185 391h114l186-391z"/><glyph unicode="_" glyph-name="underscore" horiz-adv-x="571" d="M0-126h570v-78H0v78z"/><glyph unicode="`" glyph-name="grave" horiz-adv-x="333" d="M178 760l101-144-102-10L53 709l125 51z"/><glyph unicode="a" glyph-name="a" horiz-adv-x="590" d="M397 0v65q-28-35-72-53T224-6q-56 0-98 21T60 75t-23 85q0 75 53 117t150 44h156v14q0 47-31 73t-90 26q-76 0-159-50l-47 90q63 35 114 50t121 16q104 0 161-50t59-140l1-350H397zm-86 94l40 26 45 66v48H261q-52 0-76-15t-25-51q0-34 25-54t70-20q56 0 96 26z"/><glyph unicode="b" glyph-name="b" horiz-adv-x="681" d="M471 539l57-34 89-97 32-143q0-80-31-141t-88-95T398-5q-60 0-106 23t-76 69V0H86v742h130V447q29 45 74 68t106 24q75 0 132-34zm-38-432l42 45 42 117q0 71-42 116t-108 45q-67 0-109-45t-42-116q0-72 42-117t109-45q66 0 108 45z"/><glyph unicode="c" glyph-name="c" horiz-adv-x="564" d="M395 425h-86q-65 0-105-44t-41-114q0-72 40-116t106-44q96 0 144 63l81-67q-36-52-95-80T302-5q-79 0-140 34t-96 95-34 142q0 81 34 143t96 96 142 34q73 0 130-25t94-73l-79-75q-54 59-140 59z"/><glyph unicode="d" glyph-name="d" horiz-adv-x="683" d="M597 742V0H467v86q-29-45-74-68T287-6q-76 0-133 34t-90 97-32 144q0 80 31 141t89 96 132 34q61 0 107-24t76-69v295h130zM382 103l42 45 43 118q0 72-42 117t-110 46q-67 0-109-45t-43-118q1-72 43-117t109-46q67 0 109 45z"/><glyph unicode="e" glyph-name="e" horiz-adv-x="592" d="M432 539l64-73 65-205q0-26-1-39H165q13-57 53-89t100-33q41 0 78 15t66 45l70-73q-40-44-97-68T307-5q-82 0-144 34t-97 95-34 142q0 80 34 142t97 96 141 35q128 0 192-73zm10-230q-2 59-39 94t-98 35q-57 0-95-34t-48-95h280z"/><glyph unicode="f" glyph-name="f" horiz-adv-x="365" d="M274 636l-19-17-20-51v-55h134v-95H235V0H105v418H35v95h70v51q0 59 26 100t69 63 95 21q50 0 98-23l-23-105q-40 16-66 16-30 0-49-17z"/><glyph unicode="g" glyph-name="g" horiz-adv-x="642" d="M570 535V51q0-76-34-132t-98-87-148-31q-122 0-226 71l52 94q76-56 167-56 72 0 114 37t43 101v63q-27-41-70-62T270 27q-70 0-124 32t-84 91-30 135q0 75 30 132t84 90 124 32q56 0 99-22t71-62v80h130zM361 129l39 42 40 111q0 68-39 110t-103 43q-63 0-102-43t-41-110q1-68 40-110t103-43q63 0 102 42z"/><glyph unicode="h" glyph-name="h" horiz-adv-x="672" d="M501 540l53-55 53-151V0H476v296q0 56-32 88t-87 33q-65-1-103-44t-38-110V0H86v742h130V433q55 105 193 107 92 0 145-55z"/><glyph unicode="i" glyph-name="i" horiz-adv-x="291" d="M81 535h130V0H81v535zm96 230l21-22 21-56q0-33-21-55t-53-22q-32 0-53 22t-21 55q0 34 21 56t53 22q32 0 53-22z"/><glyph unicode="j" glyph-name="j" horiz-adv-x="284" d="M-10-89l23-1q33-1 50 21T81-3v538h130V-23q0-83-44-129T43-199q-55 0-104 20l28 98q23-8 46-9zm187 854l21-22 21-56q0-33-21-55t-53-22q-32 0-53 22t-21 55q0 34 21 56t53 22q32 0 53-22z"/><glyph unicode="k" glyph-name="k" horiz-adv-x="605" d="M443 0L298 234l-82-86V0H86v742h130V312l220 222h150L388 328 598 0H443z"/><glyph unicode="l" glyph-name="l" horiz-adv-x="302" d="M86 742h130V0H86v742z"/><glyph unicode="m" glyph-name="m" horiz-adv-x="1041" d="M873 540l52-55 52-151V0H846v296q0 57-31 89t-86 33q-62-2-98-45t-37-109V0H463v296q0 57-31 89t-85 33q-63-2-99-45t-37-109V0H81v535h130v-99q53 102 188 104 70 0 117-33t67-95q51 126 199 128 91 0 143-55z"/><glyph unicode="n" glyph-name="n" horiz-adv-x="666" d="M495 540l53-55 53-151V0H470v296q0 56-32 88t-87 33q-65-1-102-44t-38-110V0H81v535h130V435q55 103 192 105 92 0 145-55z"/><glyph unicode="o" glyph-name="o" horiz-adv-x="628" d="M398 539l63-34 99-95 36-142q0-81-35-143t-99-96T315-5q-84 0-148 34t-99 96-36 143q0 80 35 141t100 96 148 34q83 0 146-34zM247 428l-42-45-42-117q0-72 42-117t110-45q66 0 108 45t42 117q0 72-42 117t-108 45q-68 0-110-45z"/><glyph unicode="p" glyph-name="p" horiz-adv-x="681" d="M471 539l57-34 89-97 32-143q0-80-31-141t-88-95T398-5q-60 0-106 23t-76 69v-281H86v729h130v-88q29 45 74 68t106 24q75 0 132-34zm-38-432l42 45 42 117q0 71-42 116t-108 45q-67 0-109-45t-42-116q0-72 42-117t109-45q66 0 108 45z"/><glyph unicode="q" glyph-name="q" horiz-adv-x="683" d="M597 535v-729H467V86q-29-45-74-68T287-6q-76 0-133 34t-90 97-32 144q0 80 31 141t89 96 132 34q61 0 107-24t76-69v88h130zM382 103l42 45 43 118q0 72-42 117t-110 46q-67 0-109-45t-43-118q1-72 43-117t109-46q67 0 109 45z"/><glyph unicode="r" glyph-name="r" horiz-adv-x="403" d="M238 484l46 27 109 29V414q-83 5-132-38t-50-118V0H81v535h130V432q27 52 73 79z"/><glyph unicode="s" glyph-name="s" horiz-adv-x="482" d="M359 413l-41 13-77 13q-33 0-52-11t-20-36q0-25 24-38t78-29q56-17 92-33t62-49 27-86q0-78-60-120T241-5q-62 0-121 19T20 70l45 91q36-31 86-48t95-18q36 0 57 12t22 38q0 28-25 42t-81 31q-54 16-88 31t-59 47-25 83q0 79 57 120t145 42q53 0 104-15t92-42l-47-94q-39 23-80 36z"/><glyph unicode="t" glyph-name="t" horiz-adv-x="415" d="M394 33Q330-6 260-6q-69 0-113 40t-44 120v264H28l-1 95h76v147h129V513h153v-95H232V177q0-37 14-52t42-16q30 0 76 22l30-98z"/><glyph unicode="u" glyph-name="u" horiz-adv-x="656" d="M575 535V0H444v99Q390-5 258-5q-90 0-142 55T64 200v335h131V238q0-56 30-88t85-32q62 1 98 44t36 109v264h131z"/><glyph unicode="v" glyph-name="v" horiz-adv-x="537" d="M-1 534l136 1 140-407 137 407h131L339 0H205L-1 534z"/><glyph unicode="w" glyph-name="w" horiz-adv-x="905" d="M-1 534l134 1 131-404 127 404h131l129-404 128 404h131L716 0H583L455 377 328 0H195L-1 534z"/><glyph unicode="x" glyph-name="x" horiz-adv-x="568" d="M24 535h150l111-174 114 174h143L372 274 554 0H404L285 187 156 0H11l187 274L24 535z"/><glyph unicode="y" glyph-name="y" horiz-adv-x="544" d="M285-133l-46-33-111-34q-39 0-70 11t-63 37l56 99q19-14 35-20t34-7q53 0 78 54l16 35L-7 535h135l152-389 139 389h131L310-67q-25-66-71-99z"/><glyph unicode="z" glyph-name="z" horiz-adv-x="541" d="M52 534h446v-86L204 106l302-1V-1L42 0v86l294 342-284 1v105z"/><glyph unicode="{" glyph-name="braceleft" horiz-adv-x="350" d="M232 376l-16-18-42-32-34-17 19-10q29-15 43-25t22-28 8-50V46q0-37 20-52t73-16v-104h-50q-87 0-124 30T114 6v199q0 27-9 38t-32 12H40v107h33q22 0 31 11t10 39v199q0 72 37 102t124 30h50V639q-52 0-72-15t-21-53V420q0-44-16-62z"/><glyph unicode="|" glyph-name="bar" horiz-adv-x="277" d="M89 808h99v-922H89v922z"/><glyph unicode="}" glyph-name="braceright" horiz-adv-x="350" d="M310 362V255h-33q-22 0-31-11t-10-39V6q0-72-37-102T75-126H25v104q52 0 72 15t21 53v150q0 31 8 49t22 29 43 25l19 10q-9 4-39 19t-41 37-12 55v151q0 37-20 52t-73 16v104h50q87 0 124-30t37-102V412q0-27 9-38t32-12h33z"/><glyph unicode="~" glyph-name="asciitilde" horiz-adv-x="501" d="M438 245H338q-26 0-48 9t-46 24q-21 11-32 16t-22 5q-37 0-37-49H64q0 151 101 151 24 0 44-8t48-25q21-12 32-17t23-5q37 0 37 49h89q0-150-100-150z"/><glyph glyph-name="uni00A0" horiz-adv-x="245"/><glyph unicode="¡" glyph-name="exclamdown" horiz-adv-x="222" d="M95 399l-19 20-20 51q0 32 19 52t50 21q29 0 48-21t20-52q0-31-19-51t-49-20q-30 0-49 20zm92-558H62V15l22 291h81l22-291v-174z"/><glyph unicode="¢" glyph-name="cent" horiz-adv-x="600" d="M473 15L356-1v-144h-99V-2q-67 9-118 45t-79 94-28 129q0 109 61 182t164 88v153h99V535q55-7 99-31t73-63l-79-75q-54 59-140 59-65 0-105-44t-41-114q0-72 40-116t106-44q96 0 144 63l81-67Q473 15 356-1z"/><glyph unicode="£" glyph-name="sterling" horiz-adv-x="551" d="M250 109h274V0H35v109h81v209H35v62h81v100q0 108 57 167t163 59q58 0 110-23t91-66l-52-104q-65 73-136 73-48 0-73-27t-26-82v-97h174v-62H250V109z"/><glyph unicode="¤" glyph-name="currency" horiz-adv-x="708" d="M621 241l-46-67L676 73 602-5 496 100q-65-41-142-41t-142 41L106-5 32 73l101 101q-45 68-45 146t43 143l-99 99 74 79 102-102q67 43 146 43t146-43l102 102 74-79-99-99q44-64 44-143t-46-146zm-223-72l38 20 60 55 22 76q0 41-22 76t-60 56-82 21q-44 0-81-20t-60-56-22-77q0-41 22-75t59-55 82-21q44 0 82 20z"/><glyph unicode="¥" glyph-name="yen" horiz-adv-x="650" d="M650 700L437 308h155v-63H403l-8-15v-41h197v-63H395V0H260v126H62v63h198v37l-11 19H62v63h153L0 700h135l192-329 187 329h136z"/><glyph unicode="¦" glyph-name="brokenbar" horiz-adv-x="277" d="M89 808h99V463H89v345zm0-577h99v-345H89v345z"/><glyph unicode="§" glyph-name="section" horiz-adv-x="511" d="M336 602h-70q-40 0-63-14t-24-38q0-30 28-46t91-35q58-18 94-34t63-48 27-81q0-43-30-79t-75-51q43-20 62-44t19-66q0-44-26-78t-75-54-110-20q-62 0-121 19T20-10l38 85q45-33 93-50t93-18q42 0 68 16t27 40q0 29-28 44t-89 36q-58 19-94 35t-63 48-26 79q0 46 31 79t87 49q-52 23-72 48t-21 64q0 43 24 77t71 53 106 19q105 0 199-56l-41-84q-87 48-157 48zM202 368l-24-14-24-41q0-31 34-51t86-20q44 0 67 15t24 42q0 30-33 49t-85 20q-45 0-69-14z"/><glyph unicode="¨" glyph-name="dieresis" horiz-adv-x="382" d="M142 751l18-19 18-48q0-29-18-47t-46-19q-28 0-46 18t-18 48q0 29 18 48t46 19q28 0 46-19zm181 0l18-19 19-48q0-28-18-47t-47-19q-27 0-45 19t-19 47q0 29 18 48t46 19q28 0 46-19z"/><glyph unicode="©" glyph-name="copyright" horiz-adv-x="740" d="M463 689l77-45 123-124 45-170q0-91-45-169T540 56 368 9q-93 0-170 46T76 179 31 348q0 91 45 169t122 125 172 47q93 0 170-45zm-169-66l-63-37-100-101-37-137q0-74 36-136t99-100 139-37q77 0 140 37t100 100 37 138q0 74-36 136T509 586t-139 37q-76 0-139-37zm155-186l-24 11-48 12q-48 0-80-31t-33-79q0-47 32-79t81-32q23 0 47 10t44 29l39-43q-26-26-62-41t-72-16q-49 0-89 22t-63 62-24 87q0 47 23 86t65 61 91 23q36 0 70-14t61-41l-39-47q-19 20-43 31z"/><glyph unicode="ª" glyph-name="ordfeminine" horiz-adv-x="387" d="M251 458v47q-17-25-45-38t-66-13q-51 0-81 26t-30 71q0 45 33 68t95 25h94v11q-1 26-19 40t-53 14q-49 0-107-28l-23 63q82 36 150 36 67 0 104-30t37-84l1-208h-90zm-24 57l24 45v38h-76q-28 0-43-10t-16-29q0-20 14-32t40-12q57 0 81 45z"/><glyph unicode="«" glyph-name="guillemotleft" horiz-adv-x="469" d="M135 440h108L136 262 243 85H135L18 262l117 178zm191 0h108L327 262 434 85H326L209 262l117 178z"/><glyph unicode="¬" glyph-name="logicalnot" horiz-adv-x="566" d="M494 412V142h-96v180H35v90h459z"/><glyph unicode="­" glyph-name="uni00AD" horiz-adv-x="370" d="M59 350h251v-90H59v90z"/><glyph unicode="®" glyph-name="registered" horiz-adv-x="740" d="M463 689l77-45 123-124 45-170q0-91-45-169T540 56 368 9q-93 0-170 46T76 179 31 348q0 91 45 169t122 125 172 47q93 0 170-45zM445 75l63 37 100 100 37 138q0 74-36 136T509 586t-139 37q-76 0-139-37T131 485 94 348q0-74 36-136t99-100 139-37q77 0 140 37zm69 297l-17-27-50-42 74-110h-72l-59 98h-86v-98h-63v332h137q65 0 100-29t36-85q0-39-17-66zm-210-28h74q36 0 56 17t20 49q0 31-20 47t-56 16h-74V344z"/><glyph unicode="¯" glyph-name="overscore" horiz-adv-x="349" d="M26 726h299v-83H26v83z"/><glyph unicode="°" glyph-name="degree" horiz-adv-x="354" d="M246 812l35-34 35-82q0-47-35-81t-83-34q-48 0-82 34t-35 81q0 48 34 82t83 34q48 0 83-34zm-74-56l-18-17-19-43q0-24 18-41t45-18q26 0 45 17t19 42q0 25-19 42t-45 18q-26 0-44-17z"/><glyph unicode="±" glyph-name="plusminus" horiz-adv-x="501" d="M293 438h174v-88H293V183h-85v167H35v88h173v168h85V438zM35 14v90h432V14H35z"/><glyph unicode="²" glyph-name="uni00B2" horiz-adv-x="364" d="M199 602l12 20 13 36q0 20-15 31t-44 11q-26 0-57-14t-60-38l-36 69q82 61 168 61 63 0 102-29t40-78q0-61-81-137L141 434h197v-74H22v63l156 159q21 20 33 40z"/><glyph unicode="³" glyph-name="uni00B3" horiz-adv-x="358" d="M268 594l31-29 31-77q0-59-44-96t-118-37q-42 0-84 13t-70 34l38 74q48-49 109-49 36 0 56 16t21 44q0 28-20 42t-58 15H95v51l108 106H34v70h276v-54L195 604l22-3q51-7 82-36z"/><glyph unicode="´" glyph-name="acute" horiz-adv-x="350" d="M167 760l125-51-128-103-101 10 104 144z"/><glyph unicode="µ" glyph-name="uni00B5" horiz-adv-x="677" d="M597 535V0H466v99Q412-5 280-5q-35 0-64 9v-198H86v729h131V238q0-56 30-88t85-32q62 1 98 44t36 109v264h131z"/><glyph unicode="¶" glyph-name="paragraph" horiz-adv-x="625" d="M208 345h-19q-70 0-113 31t-60 75-18 89q0 54 24 100t75 74 131 28h311v-850H439v770H317v-770h-98v454q-11-1-30-1z"/><glyph unicode="·" glyph-name="middot" horiz-adv-x="228" d="M146 365l21-22 21-56q0-33-21-55t-53-22q-32 0-53 22t-21 55q0 34 21 56t53 22q32 0 53-22z"/><glyph unicode="¸" glyph-name="cedilla" horiz-adv-x="301" d="M218 0l-20-53q42-7 62-28t20-52q0-44-33-67t-86-24q-49 0-100 21l24 70q31-11 57-11 19 0 30 7t11 17q0 11-13 18t-37 7h-30L137 8l81-8z"/><glyph unicode="¹" glyph-name="uni00B9" horiz-adv-x="245" d="M4 775h176V360H86v338H4v77z"/><glyph unicode="º" glyph-name="ordmasculine" horiz-adv-x="409" d="M283 779l49-44 49-118q0-73-49-117t-128-45q-79 0-128 44T27 617q0 73 49 117t128 45q79 0 128-44zm-117-75l-23-24-24-64q0-40 23-64t62-24q38 0 61 24t24 64q0 40-23 64t-62 24q-38 0-61-24z"/><glyph unicode="»" glyph-name="guillemotright" horiz-adv-x="479" d="M142 84H34l107 178L34 439h108l117-177L142 84zm191 0H225l107 178-107 177h108l117-177L333 84z"/><glyph unicode="¼" glyph-name="onequarter" horiz-adv-x="781" d="M4 700h176V285H86v338H4v77zm553 0h99L146 0H46l511 700zm8-285h89L519 164h110v97h88v-97h60V94h-60V0h-88v94H424v65l141 256z"/><glyph unicode="½" glyph-name="onehalf" horiz-adv-x="815" d="M4 700h176V285H86v338H4v77zm553 0h99L146 0H46l511 700zm93-458l12 20 13 36q0 20-15 31t-44 11q-26 0-57-14t-60-38l-36 69q82 61 168 61 63 0 102-29t40-78q0-61-81-137L592 74h197V0H473v63l156 159q21 20 33 40z"/><glyph unicode="¾" glyph-name="threequarters" horiz-adv-x="864" d="M268 521l31-29 31-77q0-59-44-96t-118-37q-42 0-84 13t-70 34l38 74q48-49 109-49 36 0 56 16t21 44q0 28-20 42t-58 15H95v51l108 106H34v70h276v-54L195 531l22-3q51-7 82-36zm372 179h99L229 0H129l511 700zm8-285h89L602 164h110v97h88v-97h60V94h-60V0h-88v94H507v65l141 256z"/><glyph unicode="¿" glyph-name="questiondown" horiz-adv-x="451" d="M208 399l-19 20-20 51q0 32 19 52t50 21q29 0 48-21t20-52q0-31-19-51t-49-20q-30 0-49 20zM427-53l-57-55-154-56q-94 0-149 44T11 6q0 38 13 67t31 49 49 47q41 35 61 63t21 71h100q0-40-12-70t-28-49-46-46q-34-31-50-54t-16-58q0-39 24-58t69-20q46 0 72 24t28 73h101q-1-98-58-153z"/><glyph unicode="À" glyph-name="Agrave" horiz-adv-x="747" d="M604 0l-62 148H200L138 0H-1l307 700h139L748 0H604zM248 263h246L372 557 248 263zm82 647l101-144-102-10-124 103 125 51z"/><glyph unicode="Á" glyph-name="Aacute" horiz-adv-x="747" d="M604 0l-62 148H200L138 0H-1l307 700h139L748 0H604zM248 263h246L372 557 248 263zm164 647l125-51-128-103-101 10 104 144z"/><glyph unicode="Â" glyph-name="Acircumflex" horiz-adv-x="747" d="M604 0l-62 148H200L138 0H-1l307 700h139L748 0H604zM248 263h246L372 557 248 263zm297 498H429l-55 63-55-63H203l108 144h126l108-144z"/><glyph unicode="Ã" glyph-name="Atilde" horiz-adv-x="747" d="M604 0l-62 148H200L138 0H-1l307 700h139L748 0H604zM248 263h246L372 557 248 263zm293 494h-88q-22 0-42 8t-46 22q-32 18-45 18-15 0-21-11t-6-34h-83q0 141 87 141 22 0 42-8t46-22q32-18 45-18 15 0 21 11t6 33h84q0-140-88-140z"/><glyph unicode="Ä" glyph-name="Adieresis" horiz-adv-x="747" d="M604 0l-62 148H200L138 0H-1l307 700h139L748 0H604zM248 263h246L372 557 248 263zm63 628l18-19 19-48q0-28-18-47t-46-20q-28 0-46 19t-19 48q0 29 18 48t47 19q27 0 45-19zm182 0l18-19 18-48q0-28-18-47t-46-20q-28 0-46 19t-19 48q0 29 18 48t47 19q28 0 46-19z"/><glyph unicode="Å" glyph-name="Aring" horiz-adv-x="747" d="M604 0l-62 148H200L138 0H-1l307 700h139L748 0H604zM248 263h246L372 557 248 263zm172 706l33-33 34-79q0-46-33-79t-80-34q-47 0-80 33t-33 80q0 46 33 79t80 33q46 0 79-33zm-66-64l-15-14-15-34q0-20 15-34t35-14q20 0 35 14t15 34q0 19-15 33t-35 15q-20 0-35-14z"/><glyph unicode="Æ" glyph-name="AE" horiz-adv-x="1065" d="M624 117h391V0H491v164H231L140 0H-1l405 700h599V583H624V410h341V293H624V117zM290 269h201v321h-23L290 269z"/><glyph unicode="Ç" glyph-name="Ccedilla" horiz-adv-x="696" d="M623 62l-63-31L431-8l-17-45q42-7 62-28t20-52q0-44-33-67t-86-24q-49 0-100 21l24 70q31-11 57-11 19 0 30 7t11 17q0 11-13 18t-37 7h-30l29 88Q258 4 186 53T72 181 31 351q0 100 49 182t133 129 188 47q75 0 147-30t123-83l-78-98q-37 43-87 67t-103 24q-65 0-119-31t-85-85-31-120q0-65 31-119t85-86 119-32q50 0 100 22t90 61l79-88q-49-49-112-80z"/><glyph unicode="È" glyph-name="Egrave" horiz-adv-x="661" d="M86 700h513V583H220V410h340V293H220V117h391V0H86v700zm221 210l101-144-102-10-124 103 125 51z"/><glyph unicode="É" glyph-name="Eacute" horiz-adv-x="661" d="M86 700h513V583H220V410h340V293H220V117h391V0H86v700zm303 210l125-51-128-103-101 10 104 144z"/><glyph unicode="Ê" glyph-name="Ecircumflex" horiz-adv-x="661" d="M86 700h513V583H220V410h340V293H220V117h391V0H86v700zm436 61H406l-55 63-55-63H180l108 144h126l108-144z"/><glyph unicode="Ë" glyph-name="Edieresis" horiz-adv-x="661" d="M86 700h513V583H220V410h340V293H220V117h391V0H86v700zm202 191l18-19 19-48q0-28-18-47t-46-20q-28 0-46 19t-19 48q0 29 18 48t47 19q27 0 45-19zm182 0l18-19 18-48q0-28-18-47t-46-20q-28 0-46 19t-19 48q0 29 18 48t47 19q28 0 46-19z"/><glyph unicode="Ì" glyph-name="Igrave" horiz-adv-x="306" d="M86 700h134V0H86v700zm23 210l101-144-102-10-124 103 125 51z"/><glyph unicode="Í" glyph-name="Iacute" horiz-adv-x="306" d="M86 700h134V0H86v700zm105 210l125-51-128-103-101 10 104 144z"/><glyph unicode="Î" glyph-name="Icircumflex" horiz-adv-x="306" d="M86 700h134V0H86v700zm238 61H208l-55 63-55-63H-18L90 905h126l108-144z"/><glyph unicode="Ï" glyph-name="Idieresis" horiz-adv-x="306" d="M86 700h134V0H86v700zm4 191l18-19 19-48q0-28-18-47t-46-20q-28 0-46 19t-19 48q0 29 18 48t47 19q27 0 45-19zm182 0l18-19 18-48q0-28-18-47t-46-20q-28 0-46 19t-19 48q0 29 18 48t47 19q28 0 46-19z"/><glyph unicode="Ð" glyph-name="Eth" horiz-adv-x="773" d="M482 700l83-44 129-125 47-181q0-101-47-180T563 45 373 0H86v314H15v73h71v313h291q105 0 188-44zm-38-582l51 29 81 82 30 120q0 67-30 120t-84 83-118 30H220V387h189v-73H220V118h160q64 0 115 29z"/><glyph unicode="Ñ" glyph-name="Ntilde" horiz-adv-x="790" d="M574 700h130V0H577L217 482V0H86v700h127l361-483v483zm-3 57h-88q-22 0-42 8t-46 22q-32 18-45 18-15 0-21-11t-6-34h-83q0 141 87 141 22 0 42-8t46-22q32-18 45-18 15 0 21 11t6 33h84q0-140-88-140z"/><glyph unicode="Ò" glyph-name="Ograve" horiz-adv-x="809" d="M508 709l85-47 135-129 49-182q0-100-49-182T594 38 404-10q-104 0-189 48T80 168 31 351q0 100 49 182t134 129 190 47q104 0 189-47zM342 589l-55-31-87-86-32-121q0-66 32-121t87-87 119-32q63 0 117 32t85 87 32 121q0 66-31 120t-86 86-117 32q-64 0-119-31zm18 321l101-144-102-10-124 103 125 51z"/><glyph unicode="Ó" glyph-name="Oacute" horiz-adv-x="809" d="M508 709l85-47 135-129 49-182q0-100-49-182T594 38 404-10q-104 0-189 48T80 168 31 351q0 100 49 182t134 129 190 47q104 0 189-47zM342 589l-55-31-87-86-32-121q0-66 32-121t87-87 119-32q63 0 117 32t85 87 32 121q0 66-31 120t-86 86-117 32q-64 0-119-31zm100 321l125-51-128-103-101 10 104 144z"/><glyph unicode="Ô" glyph-name="Ocircumflex" horiz-adv-x="809" d="M508 709l85-47 135-129 49-182q0-100-49-182T594 38 404-10q-104 0-189 48T80 168 31 351q0 100 49 182t134 129 190 47q104 0 189-47zM342 589l-55-31-87-86-32-121q0-66 32-121t87-87 119-32q63 0 117 32t85 87 32 121q0 66-31 120t-86 86-117 32q-64 0-119-31zm233 172H459l-55 63-55-63H233l108 144h126l108-144z"/><glyph unicode="Õ" glyph-name="Otilde" horiz-adv-x="809" d="M508 709l85-47 135-129 49-182q0-100-49-182T594 38 404-10q-104 0-189 48T80 168 31 351q0 100 49 182t134 129 190 47q104 0 189-47zM342 589l-55-31-87-86-32-121q0-66 32-121t87-87 119-32q63 0 117 32t85 87 32 121q0 66-31 120t-86 86-117 32q-64 0-119-31zm229 168h-88q-22 0-42 8t-46 22q-32 18-45 18-15 0-21-11t-6-34h-83q0 141 87 141 22 0 42-8t46-22q32-18 45-18 15 0 21 11t6 33h84q0-140-88-140z"/><glyph unicode="Ö" glyph-name="Odieresis" horiz-adv-x="809" d="M508 709l85-47 135-129 49-182q0-100-49-182T594 38 404-10q-104 0-189 48T80 168 31 351q0 100 49 182t134 129 190 47q104 0 189-47zM342 589l-55-31-87-86-32-121q0-66 32-121t87-87 119-32q63 0 117 32t85 87 32 121q0 66-31 120t-86 86-117 32q-64 0-119-31zm-1 302l18-19 19-48q0-28-18-47t-46-20q-28 0-46 19t-19 48q0 29 18 48t47 19q27 0 45-19zm182 0l18-19 18-48q0-28-18-47t-46-20q-28 0-46 19t-19 48q0 29 18 48t47 19q28 0 46-19z"/><glyph unicode="×" glyph-name="multiply" horiz-adv-x="501" d="M433 447L312 325l121-122-60-63-122 123-123-123-60 63 121 122L68 447l60 63 123-123 122 123 60-63z"/><glyph unicode="Ø" glyph-name="Oslash" horiz-adv-x="809" d="M703 579l37-72 37-158q0-99-49-180T594 40 404-7q-86 0-161 33l-53-81H87l82 125q-65 49-101 121T31 349q0 99 49 180t134 127 190 47q86 0 159-32l55 84h103l-83-127q65-49 102-121zM168 300l19-44 54-77 253 387q-42 17-88 17-64 0-119-31t-87-84-32-119q0-49 19-93zm301-187l54 31 85 86 32 119q0 50-19 94t-54 77L313 132q44-19 93-19 63 0 117 31z"/><glyph unicode="Ù" glyph-name="Ugrave" horiz-adv-x="756" d="M207 205l47-47 126-47q79 0 124 47t46 130v412h134V288q0-91-37-158T542 26 380-10q-94 0-163 36T110 129 73 288v412h134V288q0-83 47-130zm128 705l101-144-102-10-124 103 125 51z"/><glyph unicode="Ú" glyph-name="Uacute" horiz-adv-x="756" d="M207 205l47-47 126-47q79 0 124 47t46 130v412h134V288q0-91-37-158T542 26 380-10q-94 0-163 36T110 129 73 288v412h134V288q0-83 47-130zm210 705l125-51-128-103-101 10 104 144z"/><glyph unicode="Û" glyph-name="Ucircumflex" horiz-adv-x="756" d="M207 205l47-47 126-47q79 0 124 47t46 130v412h134V288q0-91-37-158T542 26 380-10q-94 0-163 36T110 129 73 288v412h134V288q0-83 47-130zm343 556H434l-55 63-55-63H208l108 144h126l108-144z"/><glyph unicode="Ü" glyph-name="Udieresis" horiz-adv-x="756" d="M207 205l47-47 126-47q79 0 124 47t46 130v412h134V288q0-91-37-158T542 26 380-10q-94 0-163 36T110 129 73 288v412h134V288q0-83 47-130zm109 686l18-19 19-48q0-28-18-47t-46-20q-28 0-46 19t-19 48q0 29 18 48t47 19q27 0 45-19zm182 0l18-19 18-48q0-28-18-47t-46-20q-28 0-46 19t-19 48q0 29 18 48t47 19q28 0 46-19z"/><glyph unicode="Ý" glyph-name="Yacute" horiz-adv-x="649" d="M649 700L394 229V0H260v224L-1 700h136l191-329 188 329h135zM362 910l125-51-128-103-101 10 104 144z"/><glyph unicode="Þ" glyph-name="Thorn" horiz-adv-x="681" d="M502 603l77-61 78-175q0-118-77-183t-220-65H220V0H86v700h134v-97h140q142 0 219-61zm-66-374l41 34 42 100q0 63-41 96t-123 34H220V229h135q81 0 122 34z"/><glyph unicode="ß" glyph-name="germandbls" horiz-adv-x="656" d="M73 568l31 58 89 90 139 32q71 0 125-24t84-68 31-104q0-56-30-102t-81-68q69-16 110-59t41-111q0-62-33-110t-93-75T345 0h-50v100h55q62 0 98 30t37 80q0 51-42 79t-115 29h-14v100q61 0 96 30t35 85q0 51-31 80t-83 30q-60 0-94-38t-35-106V0H73v489q0 79 31 137z"/><glyph unicode="à" glyph-name="agrave" horiz-adv-x="590" d="M397 0v65q-28-35-72-53T224-6q-56 0-98 21T60 75t-23 85q0 75 53 117t150 44h156v14q0 47-31 73t-90 26q-76 0-159-50l-47 90q63 35 114 50t121 16q104 0 161-50t59-140l1-350H397zm-86 94l40 26 45 66v48H261q-52 0-76-15t-25-51q0-34 25-54t70-20q56 0 96 26zm-61 666l101-144-102-10-124 103 125 51z"/><glyph unicode="á" glyph-name="aacute" horiz-adv-x="590" d="M397 0v65q-28-35-72-53T224-6q-56 0-98 21T60 75t-23 85q0 75 53 117t150 44h156v14q0 47-31 73t-90 26q-76 0-159-50l-47 90q63 35 114 50t121 16q104 0 161-50t59-140l1-350H397zm-86 94l40 26 45 66v48H261q-52 0-76-15t-25-51q0-34 25-54t70-20q56 0 96 26zm20 666l125-51-128-103-101 10 104 144z"/><glyph unicode="â" glyph-name="acircumflex" horiz-adv-x="590" d="M397 0v65q-28-35-72-53T224-6q-56 0-98 21T60 75t-23 85q0 75 53 117t150 44h156v14q0 47-31 73t-90 26q-76 0-159-50l-47 90q63 35 114 50t121 16q104 0 161-50t59-140l1-350H397zm-86 94l40 26 45 66v48H261q-52 0-76-15t-25-51q0-34 25-54t70-20q56 0 96 26zm153 519H348l-55 63-55-63H122l108 144h126l108-144z"/><glyph unicode="ã" glyph-name="atilde" horiz-adv-x="590" d="M397 0v65q-28-35-72-53T224-6q-56 0-98 21T60 75t-23 85q0 75 53 117t150 44h156v14q0 47-31 73t-90 26q-76 0-159-50l-47 90q63 35 114 50t121 16q104 0 161-50t59-140l1-350H397zm-86 94l40 26 45 66v48H261q-52 0-76-15t-25-51q0-34 25-54t70-20q56 0 96 26zm149 508h-88q-22 0-42 8t-46 22q-32 18-45 18-15 0-21-11t-6-34h-83q0 141 87 141 22 0 42-8t46-22q32-18 45-18 15 0 21 11t6 33h84q0-140-88-140z"/><glyph unicode="ä" glyph-name="adieresis" horiz-adv-x="590" d="M397 0v65q-28-35-72-53T224-6q-56 0-98 21T60 75t-23 85q0 75 53 117t150 44h156v14q0 47-31 73t-90 26q-76 0-159-50l-47 90q63 35 114 50t121 16q104 0 161-50t59-140l1-350H397zm-86 94l40 26 45 66v48H261q-52 0-76-15t-25-51q0-34 25-54t70-20q56 0 96 26zm-80 657l18-19 18-48q0-29-18-47t-46-19q-28 0-46 18t-18 48q0 29 18 48t46 19q28 0 46-19zm181 0l18-19 19-48q0-28-18-47t-47-19q-27 0-45 19t-19 47q0 29 18 48t46 19q28 0 46-19z"/><glyph unicode="å" glyph-name="aring" horiz-adv-x="590" d="M397 0v65q-28-35-72-53T224-6q-56 0-98 21T60 75t-23 85q0 75 53 117t150 44h156v14q0 47-31 73t-90 26q-76 0-159-50l-47 90q63 35 114 50t121 16q104 0 161-50t59-140l1-350H397zm-86 94l40 26 45 66v48H261q-52 0-76-15t-25-51q0-34 25-54t70-20q56 0 96 26zm28 710l33-33 34-79q0-46-33-79t-80-34q-47 0-80 33t-33 80q0 46 33 79t80 33q46 0 79-33zm-66-64l-15-14-15-34q0-20 15-34t35-14q20 0 35 14t15 34q0 19-15 33t-35 15q-20 0-35-14z"/><glyph unicode="æ" glyph-name="ae" horiz-adv-x="973" d="M531 192l22-29 58-46 76-17q41 0 78 15t67 45l70-73q-42-45-99-68T677-5q-77 0-135 31t-91 91q-31-61-88-92T226-6Q141-6 89 38T37 157q0 73 53 112t151 40h157v28q-1 47-32 72t-90 25q-83 0-175-50l-32 93q124 63 235 63 63 0 110-18t75-55q70 72 184 72 83 0 145-37t94-106 29-158H530v-13q1-33 23-62zm277 176l-37 38-97 38q-57 0-97-37t-48-100h281q-2 61-39 99zM216 241l-28-19-28-54q0-38 26-60t70-23q97 0 143 85l-1 71H266q-50 0-78-19z"/><glyph unicode="ç" glyph-name="ccedilla" horiz-adv-x="564" d="M503 58l-49-27L342-3l-19-50q42-7 62-28t20-52q0-44-33-67t-86-24q-49 0-100 21l24 70q31-11 57-11 19 0 30 7t11 17q0 11-13 18t-37 7h-30l31 93q-68 9-119 45t-80 93-28 130q0 81 34 143t96 96 142 34q73 0 130-25t94-73l-79-75q-54 59-140 59-65 0-105-44t-41-114q0-72 40-116t106-44q96 0 144 63l81-67q-31-45-80-72z"/><glyph unicode="è" glyph-name="egrave" horiz-adv-x="592" d="M432 539l64-73 65-205q0-26-1-39H165q13-57 53-89t100-33q41 0 78 15t66 45l70-73q-40-44-97-68T307-5q-82 0-144 34t-97 95-34 142q0 80 34 142t97 96 141 35q128 0 192-73zm10-230q-2 59-39 94t-98 35q-57 0-95-34t-48-95h280zM256 759l101-144-102-10-124 103 125 51z"/><glyph unicode="é" glyph-name="eacute" horiz-adv-x="592" d="M432 539l64-73 65-205q0-26-1-39H165q13-57 53-89t100-33q41 0 78 15t66 45l70-73q-40-44-97-68T307-5q-82 0-144 34t-97 95-34 142q0 80 34 142t97 96 141 35q128 0 192-73zm10-230q-2 59-39 94t-98 35q-57 0-95-34t-48-95h280zM337 759l125-51-128-103-101 10 104 144z"/><glyph unicode="ê" glyph-name="ecircumflex" horiz-adv-x="592" d="M432 539l64-73 65-205q0-26-1-39H165q13-57 53-89t100-33q41 0 78 15t66 45l70-73q-40-44-97-68T307-5q-82 0-144 34t-97 95-34 142q0 80 34 142t97 96 141 35q128 0 192-73zm10-230q-2 59-39 94t-98 35q-57 0-95-34t-48-95h280zm28 303H354l-55 63-55-63H128l108 144h126l108-144z"/><glyph unicode="ë" glyph-name="edieresis" horiz-adv-x="592" d="M432 539l64-73 65-205q0-26-1-39H165q13-57 53-89t100-33q41 0 78 15t66 45l70-73q-40-44-97-68T307-5q-82 0-144 34t-97 95-34 142q0 80 34 142t97 96 141 35q128 0 192-73zm10-230q-2 59-39 94t-98 35q-57 0-95-34t-48-95h280zM237 750l18-19 18-48q0-29-18-47t-46-19q-28 0-46 18t-18 48q0 29 18 48t46 19q28 0 46-19zm181 0l18-19 19-48q0-28-18-47t-47-19q-27 0-45 19t-19 47q0 29 18 48t46 19q28 0 46-19z"/><glyph unicode="ì" glyph-name="igrave" horiz-adv-x="291" d="M81 535h130V0H81v535zm22 225l101-144-102-10-124 103 125 51z"/><glyph unicode="í" glyph-name="iacute" horiz-adv-x="291" d="M81 535h130V0H81v535zm103 225l125-51-128-103-101 10 104 144z"/><glyph unicode="î" glyph-name="icircumflex" horiz-adv-x="291" d="M81 535h130V0H81v535zm236 78H201l-55 63-55-63H-25L83 757h126l108-144z"/><glyph unicode="ï" glyph-name="idieresis" horiz-adv-x="291" d="M81 535h130V0H81v535zm11 216l18-19 19-48q0-28-18-47t-46-20q-28 0-46 19T0 684q0 29 18 48t47 19q27 0 45-19zm165 0l18-19 18-48q0-28-18-47t-46-20q-28 0-46 19t-19 48q0 29 18 48t47 19q28 0 46-19z"/><glyph unicode="ð" glyph-name="eth" horiz-adv-x="594" d="M482 539l40-88 41-180q0-83-35-146t-98-97T282-6q-75 0-131 28t-88 81-31 122q0 66 28 115t79 77 120 27q55 0 102-20t71-55q-16 102-122 198l-177-82-30 62 146 68q-59 42-132 74l87 59q81-36 146-86l139 64 29-63-110-51q74-73 114-161zM350 109l37 32 37 87q0 56-37 89t-98 33q-60 0-96-32t-36-86q0-55 36-89t96-34q61 0 98 32z"/><glyph unicode="ñ" glyph-name="ntilde" horiz-adv-x="666" d="M495 540l53-55 53-151V0H470v296q0 56-32 88t-87 33q-65-1-102-44t-38-110V0H81v535h130V435q55 103 192 105 92 0 145-55zm20 62h-88q-22 0-42 8t-46 22q-32 18-45 18-15 0-21-11t-6-34h-83q0 141 87 141 22 0 42-8t46-22q32-18 45-18 15 0 21 11t6 33h84q0-140-88-140z"/><glyph unicode="ò" glyph-name="ograve" horiz-adv-x="628" d="M398 539l63-34 99-95 36-142q0-81-35-143t-99-96T315-5q-84 0-148 34t-99 96-36 143q0 80 35 141t100 96 148 34q83 0 146-34zM247 428l-42-45-42-117q0-72 42-117t110-45q66 0 108 45t42 117q0 72-42 117t-108 45q-68 0-110-45zm25 332l101-144-102-10-124 103 125 51z"/><glyph unicode="ó" glyph-name="oacute" horiz-adv-x="628" d="M398 539l63-34 99-95 36-142q0-81-35-143t-99-96T315-5q-84 0-148 34t-99 96-36 143q0 80 35 141t100 96 148 34q83 0 146-34zM247 428l-42-45-42-117q0-72 42-117t110-45q66 0 108 45t42 117q0 72-42 117t-108 45q-68 0-110-45zm106 332l125-51-128-103-101 10 104 144z"/><glyph unicode="ô" glyph-name="ocircumflex" horiz-adv-x="628" d="M398 539l63-34 99-95 36-142q0-81-35-143t-99-96T315-5q-84 0-148 34t-99 96-36 143q0 80 35 141t100 96 148 34q83 0 146-34zM247 428l-42-45-42-117q0-72 42-117t110-45q66 0 108 45t42 117q0 72-42 117t-108 45q-68 0-110-45zm239 185H370l-55 63-55-63H144l108 144h126l108-144z"/><glyph unicode="õ" glyph-name="otilde" horiz-adv-x="628" d="M398 539l63-34 99-95 36-142q0-81-35-143t-99-96T315-5q-84 0-148 34t-99 96-36 143q0 80 35 141t100 96 148 34q83 0 146-34zM247 428l-42-45-42-117q0-72 42-117t110-45q66 0 108 45t42 117q0 72-42 117t-108 45q-68 0-110-45zm235 174h-88q-22 0-42 8t-46 22q-32 18-45 18-15 0-21-11t-6-34h-83q0 141 87 141 22 0 42-8t46-22q32-18 45-18 15 0 21 11t6 33h84q0-140-88-140z"/><glyph unicode="ö" glyph-name="odieresis" horiz-adv-x="628" d="M398 539l63-34 99-95 36-142q0-81-35-143t-99-96T315-5q-84 0-148 34t-99 96-36 143q0 80 35 141t100 96 148 34q83 0 146-34zM247 428l-42-45-42-117q0-72 42-117t110-45q66 0 108 45t42 117q0 72-42 117t-108 45q-68 0-110-45zm6 323l18-19 18-48q0-29-18-47t-46-19q-28 0-46 18t-18 48q0 29 18 48t46 19q28 0 46-19zm181 0l18-19 19-48q0-28-18-47t-47-19q-27 0-45 19t-19 47q0 29 18 48t46 19q28 0 46-19z"/><glyph unicode="÷" glyph-name="divide" horiz-adv-x="501" d="M278 579l19-20 19-50q0-29-19-48t-47-20q-28 0-46 19t-19 49q0 31 18 50t47 20q28 0 47-20zM34 370h433v-90H34v90zm244-147l19-20 19-50q0-29-19-48t-47-20q-28 0-46 19t-19 49q0 31 18 50t47 20q28 0 47-20z"/><glyph unicode="ø" glyph-name="oslash" horiz-adv-x="628" d="M546 443l25-54 25-121q0-81-35-143t-99-96T315-5q-69 0-128 25L111-92H28L128 55q-46 36-71 90T32 268q0 80 35 141t100 96 148 34q69 0 127-25l77 113h83L501 479q45-36 70-90zM156 195l37-46 188 276q-33 13-66 13-71 0-115-47t-44-125q0-71 37-117zM385 93l44 48 44 125q0 70-38 117L247 107q31-14 68-14 70 0 114 48z"/><glyph unicode="ù" glyph-name="ugrave" horiz-adv-x="656" d="M575 535V0H444v99Q390-5 258-5q-90 0-142 55T64 200v335h131V238q0-56 30-88t85-32q62 1 98 44t36 109v264h131zM285 760l101-144-102-10-124 103 125 51z"/><glyph unicode="ú" glyph-name="uacute" horiz-adv-x="656" d="M575 535V0H444v99Q390-5 258-5q-90 0-142 55T64 200v335h131V238q0-56 30-88t85-32q62 1 98 44t36 109v264h131zM366 760l125-51-128-103-101 10 104 144z"/><glyph unicode="û" glyph-name="ucircumflex" horiz-adv-x="656" d="M575 535V0H444v99Q390-5 258-5q-90 0-142 55T64 200v335h131V238q0-56 30-88t85-32q62 1 98 44t36 109v264h131zm-76 78H383l-55 63-55-63H157l108 144h126l108-144z"/><glyph unicode="ü" glyph-name="udieresis" horiz-adv-x="656" d="M575 535V0H444v99Q390-5 258-5q-90 0-142 55T64 200v335h131V238q0-56 30-88t85-32q62 1 98 44t36 109v264h131zM266 751l18-19 18-48q0-29-18-47t-46-19q-28 0-46 18t-18 48q0 29 18 48t46 19q28 0 46-19zm181 0l18-19 19-48q0-28-18-47t-47-19q-27 0-45 19t-19 47q0 29 18 48t46 19q28 0 46-19z"/><glyph unicode="ý" glyph-name="yacute" horiz-adv-x="544" d="M285-133l-46-33-111-34q-39 0-70 11t-63 37l56 99q19-14 35-20t34-7q53 0 78 54l16 35L-7 535h135l152-389 139 389h131L310-67q-25-66-71-99zm27 893l125-51-128-103-101 10 104 144z"/><glyph unicode="þ" glyph-name="thorn" horiz-adv-x="681" d="M245 494l46 22 105 23q75 0 132-34t89-97 32-143q0-80-31-141t-88-95T398-5q-60 0-106 23t-76 66v-278H86v936h130V451q29 43 75 65zm55-64l-42-45-42-116q0-72 42-117t109-45q66 0 108 45t42 117q0 71-42 116t-108 45q-67 0-109-45z"/><glyph unicode="ÿ" glyph-name="ydieresis" horiz-adv-x="544" d="M285-133l-46-33-111-34q-39 0-70 11t-63 37l56 99q19-14 35-20t34-7q53 0 78 54l16 35L-7 535h135l152-389 139 389h131L310-67q-25-66-71-99zm-73 884l18-19 18-48q0-29-18-47t-46-19q-28 0-46 18t-18 48q0 29 18 48t46 19q28 0 46-19zm181 0l18-19 19-48q0-28-18-47t-47-19q-27 0-45 19t-19 47q0 29 18 48t46 19q28 0 46-19z"/><glyph unicode="–" glyph-name="endash" horiz-adv-x="406" d="M0 349h406v-89H0v89z"/><glyph unicode="—" glyph-name="emdash" horiz-adv-x="679" d="M0 349h679v-89H0v89z"/><glyph unicode="‘" glyph-name="quoteleft" horiz-adv-x="221" d="M167 604v-39q0-31-19-50t-48-20q-28 0-47 19t-20 51q0 15 4 27t14 29l63 121h65l-42-119q30-19 30-58z"/><glyph unicode="’" glyph-name="quoteright" horiz-adv-x="221" d="M140 742l19-19 20-51q0-15-4-27t-14-29L98 495H33l42 119q-30 20-30 58 0 31 19 50t48 20q28 0 47-19z"/><glyph unicode="‚" glyph-name="quotesinglbase" horiz-adv-x="221" d="M140 133l19-19 20-51q0-15-4-27T161 7L98-114H33L75 5Q45 25 45 63q0 31 19 50t48 20q28 0 47-19z"/><glyph unicode="“" glyph-name="quotedblleft" horiz-adv-x="380" d="M167 604v-39q0-31-19-50t-48-20q-28 0-47 19t-20 51q0 15 4 27t14 29l63 121h65l-42-119q30-19 30-58zm159 0v-39q0-31-19-50t-48-20q-28 0-47 19t-20 51q0 15 4 27t14 29l63 121h65l-42-119q30-19 30-58z"/><glyph unicode="”" glyph-name="quotedblright" horiz-adv-x="380" d="M140 742l19-19 20-51q0-15-4-27t-14-29L98 495H33l42 119q-30 20-30 58 0 31 19 50t48 20q28 0 47-19zm159 0l19-19 20-51q0-15-4-27t-14-29l-63-121h-65l42 119q-30 20-30 58 0 31 19 50t48 20q28 0 47-19z"/><glyph unicode="„" glyph-name="quotedblbase" horiz-adv-x="380" d="M140 133l19-19 20-51q0-15-4-27T161 7L98-114H33L75 5Q45 25 45 63q0 31 19 50t48 20q28 0 47-19zm159 0l19-19 20-51q0-15-4-27T320 7l-63-121h-65L234 5q-30 20-30 58 0 31 19 50t48 20q28 0 47-19z"/><glyph unicode="•" glyph-name="bullet" horiz-adv-x="293" d="M191 378l29-30 30-77q0-47-29-78t-75-31q-44 0-73 31t-29 78q0 46 29 76t73 31q45 0 74-30z"/><glyph unicode="‹" glyph-name="guilsinglleft" horiz-adv-x="277" d="M135 440h108L136 262 243 85H135L18 262l117 178z"/><glyph unicode="›" glyph-name="guilsinglright" horiz-adv-x="277" d="M142 84H34l107 178L34 439h108l117-177L142 84z"/></font>
</defs>
</svg>
